<?xml version="1.0" standalone="no"?>
<!DOCTYPE svg PUBLIC "-//W3C//DTD SVG 1.1//EN" "http://www.w3.org/Graphics/SVG/1.1/DTD/svg11.dtd" >
<!--
2013-9-30: Created.
-->
<svg>
<metadata>
Created by iconfont
</metadata>
<defs>

<font id="espierIcon" horiz-adv-x="1024" >
  <font-face
    font-family="espierIcon"
    font-weight="500"
    font-stretch="normal"
    units-per-em="1024"
    ascent="896"
    descent="-128"
  />
    <missing-glyph />
    
    <glyph glyph-name="paishe" unicode="&#58885;" d="M270.974 707.256c5.708 0 10.298 4.128 10.298 9.276V744.37c0 5.15-4.592 9.278-10.298 9.278H198.786c-5.708 0-10.3-4.13-10.3-9.278v-27.838c0-5.102 4.592-9.276 10.3-9.276h72.188z m103.086-347.954c0-89.678 72.702-162.38 162.376-162.38 89.684 0 162.38 72.704 162.38 162.38 0 89.674-72.704 162.376-162.38 162.376-89.674 0-162.376-72.7-162.376-162.376zM2.91 568.072v-463.936c0-92.79 92.788-92.79 92.788-92.79h835.092s92.788 0 92.788 92.79V568.072c0 92.79-92.788 92.79-92.788 92.79h-185.578L698.82 753.648H374.06l-46.394-92.786H95.698c0-0.002-92.788-0.002-92.788-92.79z m788.694 0c25.614 0 46.394-20.786 46.394-46.394s-20.782-46.394-46.394-46.394c-25.606 0-46.392 20.786-46.392 46.394s20.786 46.394 46.392 46.394z m-255.166 0c115.29 0 208.774-93.482 208.774-208.77 0-115.29-93.484-208.776-208.774-208.776s-208.772 93.486-208.772 208.776c0 115.288 93.482 208.77 208.772 208.77z"  horiz-adv-x="1024" />

    
    <glyph glyph-name="jiebang-" unicode="&#58904;" d="M420.842 110.522c-25.177-25.19-65.991-25.19-91.168-0.019l-91.168 91.18c-25.171 25.177-25.171 65.99 0 91.167l91.154 91.149-91.157 91.156-136.742-136.741c-50.348-50.347-50.348-131.968 0-182.309l182.33-182.347c50.354-50.347 131.975-50.347 182.33 0.019l136.735 136.729-91.162 91.161-91.152-91.145z m501.392 501.38L739.911 794.23c-50.348 50.36-131.975 50.36-182.33 0L420.833 657.482l91.16-91.159 91.166 91.162c25.184 25.19 65.991 25.17 91.168 0l91.168-91.167c25.171-25.17 25.177-65.971 0-91.161l-91.17-91.165 91.161-91.16 136.747 136.742c50.356 50.361 50.356 131.981 0.001 182.328z m-592.566 45.584c-25.171 25.17-65.984 25.19-91.168 0-25.164-25.158-25.164-65.997 0.006-91.148l455.827-455.835c25.171-25.17 65.991-25.17 91.162 0 25.177 25.19 25.171 65.99 0 91.167L329.668 657.486z"  horiz-adv-x="1024" />

    
    <glyph glyph-name="sousuo" unicode="&#58958;" d="M1003.621891-36.298507l-183.402986 183.402985c61.134328 76.41791 101.890547 178.308458 101.890548 285.293532C922.109453 687.124378 713.233831 896 458.507463 896 208.875622 896 0 687.124378 0 432.39801s208.875622-463.60199 463.60199-463.60199c106.985075 0 208.875622 35.661692 285.293532 101.890547l183.402985-183.402985c20.378109-20.378109 50.945274-20.378109 71.323384 0 20.378109 25.472637 20.378109 56.039801 0 76.417911zM463.60199 75.781095c-198.686567 0-356.616915 163.024876-356.616915 356.616915 0 198.686567 163.024876 356.616915 356.616915 356.616915s356.616915-163.024876 356.616915-356.616915-163.024876-356.616915-356.616915-356.616915z"  horiz-adv-x="1024" />

    
    <glyph glyph-name="gouwu" unicode="&#59023;" d="M801.885091 686.545455a93.090909 93.090909 0 0 0 92.392727-81.896728l70.516364-581.818182A93.090909 93.090909 0 0 0 872.424727-81.454545H151.598545a93.090909 93.090909 0 0 0-92.392727 104.28509l70.516364 581.818182A93.090909 93.090909 0 0 0 222.091636 686.545455h579.770182z m0-69.818182H222.114909a23.272727 23.272727 0 0 1-23.086545-20.48L128.372364 13.032727l-0.046546-1.396363a23.272727 23.272727 0 0 1 23.272727-23.272728h720.80291a23.272727 23.272727 0 0 1 23.109818 26.065455l-70.516364 581.818182a23.272727 23.272727 0 0 1-23.109818 20.48zM512 849.454545a162.909091 162.909091 0 0 0 162.909091-162.90909v-162.909091h-69.818182V686.545455a93.090909 93.090909 0 1 1-186.181818 0v-162.909091h-69.818182V686.545455a162.909091 162.909091 0 0 0 162.909091 162.90909z m-186.181818-581.818181h372.363636v-69.818182H325.818182v69.818182z"  horiz-adv-x="1024" />

    
    <glyph glyph-name="denglu" unicode="&#58933;" d="M880.174545-91.554909H143.825455c-45.149091 0-81.826909 34.676364-81.82691 77.312V94.487273c0 122.973091 110.126545 223.045818 245.434182 223.045818h409.134546c135.307636 0 245.434182-100.072727 245.434182-223.045818v-108.730182c0-42.635636-36.724364-77.312-81.82691-77.312zM143.825455-9.355636l736.34909-0.372364V94.487273c0 77.870545-73.402182 141.218909-163.607272 141.218909h-409.134546c-90.205091 0-163.607273-63.348364-163.607272-141.218909v-103.842909z m367.848727 357.562181A256 256 0 0 0 256 603.880727 256 256 0 0 0 511.674182 859.554909a256 256 0 0 0 255.674182-255.674182 256 256 0 0 0-255.674182-255.674182z m0 429.521455a174.08 174.08 0 0 1-173.847273-173.847273 174.08 174.08 0 0 1 173.847273-173.847272 174.08 174.08 0 0 1 173.847273 173.847272A174.08 174.08 0 0 1 511.674182 777.774545z"  horiz-adv-x="1024" />

    
    <glyph glyph-name="zhengque" unicode="&#58937;" d="M60.217 262.09S310.415 157.531 434.781-68.54c149.378 279.763 436.11 540.714 521.05 560.014V832.917c-342.237-226.07-506.576-642.342-506.576-642.342l-180.05 191.614-208.988-120.1z"  horiz-adv-x="1024" />

    
    <glyph glyph-name="shijian" unicode="&#59001;" d="M645.3 676.5c-41.8 19.1-87.3 28.9-133.3 28.9-177.5 0-321.4-143.9-321.4-321.4 0-177.5 143.9-321.4 321.4-321.4 177.5 0 321.4 143.9 321.4 321.4 0.1 48.5-10.9 96.4-32 140-3.3 6.9-10.1 11.5-17.7 12-7.6 0.6-15-3-19.3-9.4-4.3-6.3-4.9-14.5-1.5-21.4 18.3-37.8 27.8-79.3 27.7-121.3 0-153.8-124.7-278.5-278.5-278.5S233.6 230.1 233.6 383.9s124.7 278.5 278.5 278.5c40.4 0 79.5-8.6 115.5-25 7-3.2 15.1-2.4 21.3 2 6.2 4.4 9.6 11.9 8.9 19.5-0.8 7.8-5.6 14.4-12.5 17.6z m0 0M704.8 598.2c0-11.8 9.6-21.4 21.4-21.4 11.8 0 21.4 9.6 21.4 21.4 0 11.8-9.6 21.4-21.4 21.4-11.8 0.1-21.4-9.5-21.4-21.4z m0 0M479.9 544.7v-192.8c0-11.8 9.6-21.4 21.4-21.4 11.8 0 21.4 9.6 21.4 21.4V544.7c0 11.8-9.6 21.4-21.4 21.4-11.8 0-21.4-9.6-21.4-21.4z m0 0M673.9 368.6H502.6c-11.8 0-21.4-9.6-21.4-21.4 0-11.8 9.6-21.4 21.4-21.4H674c11.8 0 21.4 9.6 21.4 21.4 0 11.8-9.6 21.4-21.5 21.4z m0 0"  horiz-adv-x="1024" />

    
    <glyph glyph-name="guanbi" unicode="&#58959;" d="M591.53 384.256l416.342 416.768a54.613 54.613 0 0 1 0 76.8l-2.304 2.304a54.443 54.443 0 0 1-76.63 0L512.513 462.763 96.256 880.043a54.443 54.443 0 0 1-76.63 0l-2.389-2.134a53.59 53.59 0 0 1 0-76.8l416.427-416.768L17.237-32.512a54.613 54.613 0 0 1 0-76.8l2.304-2.219a54.443 54.443 0 0 1 76.63 0l416.426 416.854 416.342-416.854a54.443 54.443 0 0 1 76.629 0l2.304 2.304a54.613 54.613 0 0 1 0 76.8L591.445 384.341z"  horiz-adv-x="1024" />

    
    <glyph glyph-name="shouye" unicode="&#59332;" d="M233.726514-34.882065h557.782709v313.77342a34.849032 34.849032 0 1 0 69.731097 0v-348.655484c0-19.224774-15.591226-34.849032-34.849032-34.849032H198.844449a34.849032 34.849032 0 0 0-34.849032 34.849032V278.891355a34.849032 34.849032 0 0 0 69.698064 0v-313.806452z m278.891354 812.791742L93.570643 358.862452A34.882065 34.882065 0 1 0 44.220449 408.113548L487.942772 851.868903a34.849032 34.849032 0 0 0 49.350193 0l443.755355-443.722322a34.915097 34.915097 0 0 0-49.383226-49.350194L512.617868 777.843613v0.066064z"  horiz-adv-x="1024" />

    
    <glyph glyph-name="fenlei" unicode="&#59334;" d="M119.22773333-106.25706666999997a96.62464 96.62464 0 0 0-96.50176 96.54272c0 53.248 43.25376 96.54272 96.50176 96.54272 53.248 0 96.54272-43.29472 96.54272-96.54272 3.31776-53.248-39.936-96.54272-96.54272-96.54272z m1035.264 53.248H385.54965333c-29.94176 0-56.60672 26.624-56.60672 56.60672 0 29.94176 26.624 56.60672 56.60672 56.60672h768.94208c29.98272 0 56.60672-26.624 56.60672-56.60672 0-29.94176-26.624-56.60672-56.60672-56.60672zM119.22773333 289.86709333a96.62464 96.62464 0 0 0-96.50176 96.54272c0 53.248 43.25376 96.54272 96.50176 96.54272 53.248 0 96.54272-43.29472 96.54272-96.54272 3.31776-53.248-39.936-96.54272-96.54272-96.54272z m1035.264 53.248H385.54965333c-29.94176 0-56.60672 26.624-56.60672 56.60672 0 29.98272 26.624 56.60672 56.60672 56.60672h768.94208c29.98272 0 56.60672-26.624 56.60672-56.60672a56.1152 56.1152 0 0 0-56.60672-56.56576zM119.22773333 682.71445333A96.62464 96.62464 0 0 0 22.72597333 779.21621333C22.72597333 832.46421333 65.97973333 875.75893333 119.22773333 875.75893333c53.248 0 96.54272-43.29472 96.54272-96.54272 3.31776-53.248-39.936-96.54272-96.54272-96.54272z m1035.264 53.248H385.54965333c-29.94176 0-56.60672 26.624-56.60672 56.60672 0 29.94176 26.624 56.60672 56.60672 56.60672h768.94208c29.98272 0 56.60672-26.624 56.60672-56.60672 0-29.94176-26.624-56.60672-56.60672-56.60672z"  horiz-adv-x="1228" />

    
    <glyph glyph-name="gouwuche" unicode="&#59335;" d="M1025.99111133 846.48770333h-0.227556a37.319111 37.319111 0 0 1-37.053629 32.502519H116.71703733a37.243259 37.243259 0 0 1-37.24326-35.195259h-0.227555S21.33333333-66.27555567000002 21.33333333-68.58903667000004c0-20.631704 16.687407-37.357037 37.357037-37.357037H1046.85037033c20.66963 0 37.357037 16.687407 37.357037 37.357037 0 2.616889-58.216296 915.076741-58.216296 915.07674zM93.88562933-31.30785166999999L156.16000033 804.27614833h793.031111l62.27437-835.584H93.88562933zM846.63940733 689.0192593300001a37.357037 37.357037 0 0 1-37.394963-37.394963h-0.075852c0-178.327704-114.801778-322.787556-256.379259-322.787556-141.084444 0-255.544889 143.435852-256.379259 320.853334l0.075852 1.934222a37.357037 37.357037 0 1 1-74.714074 0h-0.113778c0-219.515259 148.214519-397.539556 331.093333-397.539556 182.196148 0 329.879704 176.583111 331.131259 394.960593 0.113778 0.83437 0.113778 1.744593 0.113778 2.578963a37.357037 37.357037 0 0 1-37.357037 37.394963z"  horiz-adv-x="1099" />

    
    <glyph glyph-name="wo" unicode="&#59336;" d="M988.59614833-106.43911066999999H41.43407433l-0.37926 38.343111v2.958222a473.581037 473.581037 0 0 0 199.945482 386.844444 344.329481 344.329481 0 0 0-44.449185 75.738074 343.798519 343.798519 0 0 0-27.610074 135.661037c0 92.425481 36.02963 179.351704 101.376 244.698075A343.798519 343.798519 0 0 0 514.97718533 879.17985233c92.425481 0 179.351704-36.02963 244.698074-101.376a343.798519 343.798519 0 0 0 101.376-244.698075 344.367407 344.367407 0 0 0-72.059259-211.437037 473.581037 473.581037 0 0 0 199.983407-386.806518v-2.844445l-0.037926-1.213629-0.341333-37.243259z m-871.082667 75.093333h794.927408a397.842963 397.842963 0 0 1-53.930667 169.073778 401.256296 401.256296 0 0 1-145.332148 143.397926l-42.856297 24.576 35.119408 34.702222a269.046519 269.046519 0 0 1 80.516741 192.663704 269.198222 269.198222 0 0 1-79.378963 191.639703 269.198222 269.198222 0 0 1-191.601778 79.341037 269.160296 269.160296 0 0 1-191.601778-79.341037 269.198222 269.198222 0 0 1-79.341037-191.601778c0-72.969481 28.558222-141.387852 80.478815-192.663703l35.119407-34.740148-42.856296-24.576a401.256296 401.256296 0 0 1-145.332148-143.397926 397.842963 397.842963 0 0 1-53.930667-169.035852z"  horiz-adv-x="1024" />

    
    <glyph glyph-name="shimingrenzheng" unicode="&#59337;" d="M21.53025633 324.08287133V385.64102533h984.615385v-61.558154h-984.615385z m984.615385 184.635077H919.30256433V765.2299483300001c0 16.935385-14.375385 30.641231-32.492308 30.641231H636.91487133V877.94871833h304.009847c36.233846 0 65.220923-27.608615 65.220923-61.597539v-307.633231z m0-246.153846v-307.633231c0-34.225231-29.184-61.597538-65.220923-61.597538h-304.049231v82.077538h249.934769c17.92 0 32.492308 13.508923 32.492308 30.680616v256.472615h86.843077z m-984.615385 246.153846V816.35117933C21.53025633 850.57641033 50.71425633 877.94871833 86.71179533 877.94871833H390.76102533v-82.077539H140.86564133c-17.92 0-32.492308-13.548308-32.492308-30.641231v-256.512H21.53025633z m0-246.153846H108.37333333v-256.472615c0-16.935385 14.375385-30.72 32.492308-30.72H390.76102533V-106.66666667000004H86.71179533C50.47794833-106.66666667000004 21.53025633-79.05805167000005 21.53025633-45.069128670000055v307.633231z"  horiz-adv-x="1024" />

    
    <glyph glyph-name="kefu" unicode="&#58912;" d="M463.573 859.52c301.014 29.547 552-220.373 524.16-521.067-20.373-220.266-194.986-400.746-414.613-428.48-111.68-14.08-216.427 11.2-303.787 62.827L135.36-73.387c-14.187-4.906-28.373 7.467-25.493 22.187l27.093 139.733C61.867 183.68 21.653 307.84 37.547 441.813 63.68 661.76 243.093 837.76 463.573 859.52z m0.64-427.733c-26.346 0-47.786-21.44-47.786-47.787 0-26.347 21.44-47.787 47.786-47.787h286.72c26.347 0 47.787 21.44 47.787 47.787 0 26.347-21.44 47.787-47.787 47.787h-286.72z m-191.146-95.574c26.346 0 47.786 21.44 47.786 47.787 0 26.347-21.44 47.787-47.786 47.787-26.347 0-47.787-21.44-47.787-47.787 0-26.347 21.44-47.787 47.787-47.787z"  horiz-adv-x="1024" />

    
    <glyph glyph-name="gouwudai" unicode="&#58881;" d="M212.992 810.667h598.016a85.333 85.333 0 0 0 84.821-75.99l75.094-682.666a85.333 85.333 0 0 0-84.822-94.678H137.9a85.333 85.333 0 0 0-84.822 94.678l75.094 682.666a85.333 85.333 0 0 0 84.821 75.99z m85.675-256a213.333 213.333 0 0 1 426.666 0 42.667 42.667 0 0 1-85.333 0 128 128 0 0 0-256 0 42.667 42.667 0 1 1-85.333 0z"  horiz-adv-x="1024" />

    
    <glyph glyph-name="dianhua" unicode="&#58914;" d="M621.034 183.537c1.863 1.156 22.295 13.942 28.27 17.54 11.052 6.683 20.175 11.694 29.299 15.806 64.122 29.17 120.663 8.546 195.451-78.836 46.261-54.1 59.946-102.095 42.085-144.821-13.3-31.933-38.936-53.971-84.555-81.214-2.955-1.734-29.234-17.026-35.98-21.203-106.207-65.536-349.654 84.49-524.738 340.852C95.332 488.665 49.906 762.695 157.527 829.195l14.2 8.995 15.42 10.023c54.42 35.21 89.245 49.28 130.558 42.277 41.25-7.067 76.33-37.586 106.014-93.163 62.58-117.58 48.767-173.35-31.74-224.044-5.782-3.726-26.343-16.127-28.27-17.347-19.725-12.208 13.685-94 91.365-207.724 78.643-115.01 144.372-177.91 165.896-164.675z"  horiz-adv-x="1024" />

    
    <glyph glyph-name="shoucang2" unicode="&#58880;" d="M734.53112889 860.51953778c-87.96387555 0-169.51978667-44.27320889-223.69621334-117.09098667-53.59388445 72.81777778-135.73233778 117.09098667-223.69621333 117.09098667-158.45148445 0-287.19331555-140.97521778-287.19331555-313.99025778 0-103.10997333 46.02083555-175.92775111 83.30353778-234.18197333C191.01923555 142.82752000000005 462.48391111-67.47022221999998 474.13475555-76.20835554999996c11.06830222-8.73813333 23.88423111-12.81592889 36.70016-12.8159289s25.63185778 4.07779555 36.70016 12.8159289c11.65084445 8.73813333 282.53297778 219.61841778 390.88583112 388.55566222 37.28270222 58.25422222 83.30353778 131.072 83.30353778 234.18197333 0 173.01504-128.74183111 313.99025778-287.19331556 313.99025778z"  horiz-adv-x="1024" />

    
    <glyph glyph-name="shoucang" unicode="&#58882;" d="M709.09472656 799.40361328c-77.43515625 0-149.22333984-38.97421875-196.91894531-103.07197265C465.00224609 760.43378906 392.69638672 799.40361328 315.26035156 799.40361328 175.78232422 799.40361328 62.45 675.30732422 62.45 523.00517578c0-90.76464844 40.50878906-154.86767578 73.32714844-206.14482422 94.86914063-149.22949219 333.83759766-334.34560547 344.08828125-342.04042968a51.68671875 51.68671875 0 0 1 32.30595703-11.28164063c11.28076172 0 22.56240234 3.59033203 32.30507812 11.28164063 10.26035156 7.69482422 248.71025391 193.32861328 344.09179688 342.04042968 32.82363281 51.28154297 73.33242187 115.37929688 73.33242187 206.14482422 0.00439453 152.30214844-113.32353516 276.3984375-252.80507812 276.3984375z m114.35009766-481.00429687c-87.68232422-123.07060547-273.31611328-263.57871094-282.55078125-270.24345703-8.71611328-6.66914062-18.97558594-10.25947266-28.71826172-10.25947266-10.25595703 0-19.99863281 3.07792969-28.71474609 10.25947266-9.23378906 6.66035156-191.27636719 148.70742187-282.55517578 275.36835937C171.67871094 369.67646484 125.01318359 427.11035156 125.01318359 508.12792969c0 136.40888672 75.89355469 232.29931641 200.50664063 232.2993164 69.22792969 0 144.61259766-66.15 186.65595703-123.58300781 42.56542969 57.43300781 117.43154297 123.58300781 186.65947266 123.58300781 125.12285156 0 206.15009766-95.89042969 206.15009765-232.2993164 0-81.01318359-51.80009766-144.08964844-81.54052734-189.72949219z"  horiz-adv-x="1024" />

    
    <glyph glyph-name="xiala" unicode="&#58900;" d="M950.43254955 97.79756904999999c-16.2219999-16.68548584-38.23757172-32.21225716-59.09442902-27.46152878-20.8568573-3.47614289-40.55500008 13.0934713-56.77699998 27.46152878L332.83783084 616.55395889a69.05937173 69.05937173 0 0 0 0 95.36218666 64.42451499 64.42451499 0 0 0 92.69714333 0l466.96186087-493.61228943L1360.61740978 711.91614555a64.42451499 64.42451499 0 0 0 92.697144 0c25.49171469-26.18694328 25.49171469-69.17524338 0-95.36218666L950.43254955 97.79756904999999z"  horiz-adv-x="1706" />

    
    <glyph glyph-name="gou" unicode="&#58894;" d="M943.968 698.162c-43.378 43.378-113.698 43.378-157.075 0l-392.704-392.704-157.075 157.087c-43.378 43.378-113.698 43.378-157.075 0-43.387-43.387-43.387-113.712 0-157.103l235.618-235.605c43.387-43.387 113.712-43.387 157.103 0l471.218 471.233c43.361 43.387 43.361 113.698-0.007 157.087z"  horiz-adv-x="1024" />

    
    <glyph glyph-name="pingjia" unicode="&#58883;" d="M978.986667 462.165333a46.933333 46.933333 0 0 1-37.802667 32.256l-267.52 47.36-119.68 242.56A46.677333 46.677333 0 0 1 512 810.666667c-17.92 0-34.133333-10.24-42.154667-26.325334L350.293333 541.781333 82.773333 492.757333c-17.664-2.56-32.341333-15.104-37.802666-32.213333-5.546667-17.066667-0.938667-35.925333 11.904-48.426667l193.536-180.181333L199.808-29.866667000000007c-2.986667-17.706667 4.138667-35.754667 18.688-46.208 13.909333-13.994667 42.581333-7.296 49.408-3.712l244.053333 120.149334 242.56-120.149334c6.826667-3.584 33.749333-12.032 49.408 3.712a47.36 47.36 0 0 1 18.773334 46.208l-49.066667 261.845334L967.253333 413.866667c12.757333 12.458667 17.322667 31.274667 11.733334 48.341333z"  horiz-adv-x="1024" />

    
    <glyph glyph-name="huifu" unicode="&#59052;" d="M347.4 456c-30.4 0-55-24.7-55-55 0-30.4 24.6-55 55-55s55 24.6 55 55c0 30.3-24.6 55-55 55z m165.1 0c-30.4 0-55-24.7-55-55 0-30.4 24.6-55 55-55s55 24.6 55 55c0 30.3-24.6 55-55 55z m165.1 0c-30.4 0-55-24.7-55-55 0-30.4 24.6-55 55-55s55 24.6 55 55c0 30.3-24.7 55-55 55z m0 0M511.2 728c181.4 0 328.4-146.7 328.4-327.7 0-61.8-22.9-133.9-57.3-188.6-50.6-89.1 54.3-73.3 57.3-140.4-47.6 1.2-252.6-0.4-306.5-0.4-216.4 0-350.3 148.5-350.3 329.4 0 181 147 327.7 328.4 327.7m0 55c-51.7 0-101.9-10.1-149.2-30.1-45.7-19.3-86.6-46.8-121.8-82-35.2-35.1-62.8-76-82.2-121.6-20-47.2-30.2-97.4-30.2-149 0-104.9 39.2-201.2 110.5-271 36.3-35.6 79.7-63.2 129-82.2 50.6-19.5 106.4-31.2 165.8-31.2 10.3 0 306 0.4 306.5 0.4 14.7 0 28.9 5.9 39.2 16.5 10.7 10.9 17.2 25.7 16.6 40.9-1.1 24.9-10.7 47.1-26.8 66.1-11.7 13.8-25 23.3-35.8 30.8-2.1 1.5-4.8 3.4-7.2 5.2 0.9 2.1 2.2 4.6 3.9 7.8 19.3 31 35.5 66.8 46.8 103.6 11.9 38.7 19 77.8 19 113.1 0 51.7-11 101.8-31 149-19.3 45.6-47 86.5-82.2 121.6-35.2 35.1-76.2 62.7-121.8 82-47.2 20-97.4 30.1-149.1 30.1z m0 0"  horiz-adv-x="1024" />

    
    <glyph glyph-name="user-address" unicode="&#58994;" d="M504 864c-190.4 0-312-153.6-312-344s265.6-464 312-464 312 273.6 312 464-121.6 344-312 344zM504 416c-75.2 0-136 60.8-136 136s60.8 136 136 136 136-60.8 136-136-60.8-136-136-136zM264 168c-113.6-24-184-62.4-184-120 0-89.6 192-144 432-144s432 54.4 432 144c0 59.2-75.2 99.2-196.8 123.2-17.6 3.2-33.6-8-36.8-25.6-3.2-17.6 8-33.6 25.6-36.8 91.2-17.6 145.6-46.4 145.6-60.8 0-3.2-4.8-8-17.6-17.6-17.6-11.2-43.2-22.4-76.8-32-72-20.8-169.6-32-273.6-32s-203.2 11.2-273.6 32c-33.6 9.6-59.2 20.8-76.8 32-14.4 9.6-19.2 14.4-19.2 17.6 0 12.8 49.6 40 132.8 57.6 17.6 3.2 28.8 20.8 24 38.4-1.6 17.6-19.2 28.8-36.8 24z"  horiz-adv-x="1024" />

    
    <glyph glyph-name="weixinzhifu" unicode="&#59030;" d="M428.16 253.888c-16.832-9.28-38.144-1.536-48.832 15.488l-3.072 4.672-99.072 221.44c-1.536 1.6-1.536 4.672-1.536 7.808 0 4.608 1.536 9.28 4.544 12.352 3.072 3.136 7.68 6.208 12.16 4.672 4.608 0 7.68-1.536 10.752-3.136l117.376-85.12c13.696-9.344 32-12.416 48.768-6.272l551.936 249.408C922.112 792.96 759.04 870.4 574.464 870.4 272.64 870.4 28.608 662.72 28.608 407.168c0-139.392 73.216-264.832 189.056-350.08 9.152-6.144 15.296-18.56 15.296-29.44 0-4.608 0-7.68-1.536-12.352l-24.384-92.928a45.824 45.824 0 0 1-3.072-13.952c0-10.88 7.68-18.56 18.304-18.56 3.072 0 7.68 1.536 10.688 3.072l118.912 69.76a53.312 53.312 0 0 0 45.76 6.144A628.416 628.416 0 0 1 576-55.872c301.888 0 545.856 207.552 545.856 461.568a392.64 392.64 0 0 1-62.528 213.76L431.168 255.36l-3.072-1.536z"  horiz-adv-x="1152" />

    
    <glyph glyph-name="yinlian" unicode="&#58989;" d="M314.660571 892.854857C266.057143 886.857143 217.490286 847.396571 201.581714 801.901714 190.976 773.595429 1.024-29.586286 0.146286-44.178286c-1.755429-42.057143 22.966857-72.923429 63.634285-80.64 14.994286-3.437714 497.371429-3.437714 513.243429 0 45.933714 8.594286 89.234286 43.776 105.142857 86.674286 6.180571 16.274286 202.276571 834.925714 202.276572 848.64 2.669714 38.619429-21.211429 70.363429-59.172572 81.517714C816.420571 893.732571 334.957714 895.451429 314.660571 892.854857zM764.306286 892.854857c-48.603429-5.997714-97.170286-45.458286-113.078857-90.953143-9.728-28.306286-200.521143-831.488-200.521143-846.08-1.792-42.057143 22.966857-72.923429 63.597714-80.64 14.994286-3.437714 497.371429-3.437714 513.243429 0 45.970286 8.594286 89.234286 43.776 105.142857 86.674286 6.217143 16.274286 202.313143 834.925714 202.313143 848.64 2.633143 38.619429-21.211429 70.363429-59.209143 81.517714C1266.102857 893.732571 784.64 895.451429 764.342857 892.854857zM1233.408 892.854857c-48.603429-5.997714-97.170286-45.458286-113.078857-90.953143-9.728-28.306286-200.557714-831.488-200.557714-846.08-1.755429-42.057143 22.966857-72.923429 63.634285-80.64 14.994286-3.437714 373.686857-3.437714 389.558857 0 45.970286 8.594286 89.234286 43.776 105.142858 86.674286 6.217143 16.274286 202.313143 834.925714 202.313142 848.64 2.633143 38.619429-21.211429 70.363429-59.209142 81.517714C1612.434286 894.537143 1209.563429 896.292571 1189.229714 893.732571h44.178286v-0.877714zM299.629714 631.990857c0-0.841143-0.877714-5.997714-2.633143-11.154286-20.333714-66.925714-40.667429-157.001143-38.034285-168.155428 7.094857-33.462857 57.453714-30.902857 75.117714 4.278857 5.302857 9.435429 43.300571 166.473143 43.300571 177.627429 0 0.841143 60.050286 0 60.050286-0.877715 0 0 0-2.56-0.877714-5.12s-10.605714-38.619429-21.211429-81.554285c-23.844571-90.953143-26.477714-100.388571-38.838857-118.381715-40.667429-58.368-176.713143-56.649143-187.282286 2.56-2.669714 12.873143 26.477714 161.316571 39.753143 201.654857 0 2.56 70.656 0.841143 70.656-0.877714z m902.838857 0c40.630857-8.557714 53.028571-40.301714 34.450286-87.515428-18.541714-47.177143-58.294857-67.766857-128.073143-67.766858-21.211429 0-19.456 3.401143-32.694857-60.928-2.633143-12.032-5.302857-23.186286-5.302857-24.868571-0.877714-4.315429-63.634286-4.315429-62.72 0 53.028571 220.525714 57.417143 239.36 57.417143 241.078857l0.877714 2.56h63.634286c50.322286-0.841143 64.475429-0.841143 72.411428-2.56zM657.408 547.108571c8.850286-1.718857 14.994286-8.594286 14.994286-14.628571 0-21.430857-45.019429-36.022857-61.805715-19.712-15.908571 16.310857 17.664 41.179429 46.811429 34.340571z m-156.342857-16.310857c0-1.718857-0.914286-5.156571-0.914286-7.716571l-0.877714-3.437714 10.605714 5.12c28.269714 13.750857 55.661714 11.190857 64.475429-5.997715 5.302857-10.276571 4.425143-16.310857-9.691429-79.798857-2.669714-11.154286-6.217143-26.587429-7.058286-34.304-3.547429-17.188571-0.914286-16.310857-32.694857-16.310857-27.428571 0-27.428571 0-26.514285 2.56 0 1.718857 3.547429 15.469714 7.058285 31.744 14.153143 60.928 15.030857 69.485714 2.669715 69.485714-7.058286 0-16.822857-4.242286-17.664-6.838857a2560.438857 2560.438857 0 0 1-18.578286-87.515428l-1.755429-7.716572-27.392-1.718857c-33.572571-0.877714-30.902857-3.437714-23.844571 25.746286 9.728 37.741714 14.994286 64.365714 18.541714 88.356571 4.425143 25.746286 1.792 23.186286 26.514286 26.624 11.483429 1.718857 22.966857 3.437714 26.514286 4.278857 8.813714 2.56 10.605714 1.718857 10.605714-2.56z m419.620571 0.841143c0-1.718857-0.914286-5.12-0.914285-7.716571l-0.877715-4.278857 10.605715 5.12c54.784 27.465143 75.995429 5.156571 60.086857-65.206858-3.547429-15.433143-7.972571-37.741714-10.605715-48.054857-1.755429-11.154286-4.388571-20.589714-5.302857-21.430857-3.547429-3.437714-55.661714-2.56-54.784 0 0 1.718857 3.547429 15.433143 7.094857 30.866286 14.994286 62.646857 14.994286 70.363429 1.755429 70.363428-10.605714 0-15.908571-3.401143-17.664-11.154285a1933.385143 1933.385143 0 0 1-17.664-82.358857l-1.792-9.435429-27.392-0.877714c-33.536-0.841143-30.902857-4.278857-22.966857 27.465143 8.850286 34.340571 15.030857 66.084571 19.456 89.234285 3.510857 22.308571 0.877714 19.748571 22.966857 23.186286 9.728 1.718857 22.089143 3.437714 26.514286 4.278857 8.813714 4.315429 11.483429 3.437714 11.483428 0z m536.210286 0.877714c3.547429-52.370286 4.425143-67.803429 4.425143-68.644571 0-0.877714 7.936 12.873143 16.786286 29.988571 17.664 34.377143 14.116571 30.939429 33.572571 33.499429 5.302857 0.841143 15.908571 2.56 23.844571 4.278857 19.456 3.437714 19.456 5.156571-2.633142-32.585143-30.061714-50.651429-71.570286-121.856-86.601143-147.602285-45.056-79.798857-45.056-79.798857-83.017143-80.676572l-22.966857-0.841143 1.755428 5.997715c0.877714 3.437714 3.547429 10.313143 4.388572 15.469714l2.669714 9.435428h7.058286c7.972571 0 9.728 1.718857 16.822857 13.714286 2.633143 4.278857 7.058286 11.154286 8.813714 15.433143 2.633143 4.315429 11.483429 18.029714 18.541714 31.780571l14.153143 23.990858-3.547428 31.780571c-4.388571 36.900571-9.728 80.64-12.361143 93.513143-1.755429 12.032-1.755429 12.032 14.116571 13.750857 7.094857 0.841143 18.578286 3.401143 24.758857 4.278857 16.786286 5.12 18.541714 5.12 19.419429 3.437714z m-666.075429-0.877714c68.022857-11.995429 44.141714-126.976-30.061714-143.286857-50.358857-11.154286-84.809143 7.716571-84.809143 45.458286 0.914286 66.084571 51.236571 108.982857 114.834286 97.828571z m508.818286-3.437714c3.547429-1.718857 8.850286-5.12 11.52-7.68 4.388571-4.315429 4.388571-4.315429 4.388572-1.755429 0.877714 3.437714 0 3.437714 35.364571 8.594286 28.269714 4.278857 27.355429 4.278857 25.6-3.437714a5984.548571 5984.548571 0 0 1-25.6-110.701715c-6.217143-30.866286-1.792-27.428571-36.205714-26.587428h-29.184v3.437714c0 3.437714-1.755429 5.12-3.547429 2.56-9.691429-15.433143-57.417143-9.435429-70.656 9.435429-32.694857 48.054857 37.083429 149.321143 88.32 126.171428z m-634.258286-24.868572s0-4.278857-0.914285-7.716571c-7.058286-27.465143-19.419429-83.236571-22.089143-93.549714l-2.633143-12.873143-29.147429-0.841143c-34.450286-0.877714-32.694857-2.56-25.6 18.029714 6.144 19.748571 12.361143 43.739429 15.872 69.485715 3.547429 22.308571 0 18.870857 25.6 22.308571 11.52 1.718857 23.881143 3.437714 26.514286 4.278857 7.094857 1.718857 11.483429 1.718857 12.397714 0.877714z m154.587429-177.627428a35.364571 35.364571 0 0 0-4.425143-8.594286c-1.755429-4.278857-4.388571-7.68-4.388571-7.68 52.077714-0.877714 53.869714-0.877714 52.992-3.474286l-9.728-30.866285h-75.995429l-4.388571-3.437715c-9.728-8.594286-60.964571-19.748571-60.964572-12.873142l9.728 30.902857h7.058286c12.361143 0 14.994286 2.56 25.6 20.589714l8.850286 16.310857c45.933714 0.841143 55.661714 0 55.661714-0.877714z m115.712 0c0-0.841143-0.877714-5.12-2.633143-10.313143a38.144 38.144 0 0 1-2.669714-9.435429s4.425143 1.718857 9.728 6.034286c19.419429 12.873143 36.205714 15.433143 85.686857 15.433143 19.456 0 36.205714 0 37.12-0.841143 0.877714-1.718857-28.269714-94.390857-32.694857-102.985143-6.217143-11.154286-12.361143-17.188571-22.089143-21.467428l-8.850286-3.401143-50.322285-0.877714-50.358858-0.841143-8.850285-29.184c-17.664-55.771429-17.664-51.492571 7.972571-48.932572 20.297143 1.718857 19.419429 3.437714 13.238857-17.152l-5.302857-17.188571h-25.6c-55.661714-0.841143-62.756571 2.596571-57.417143 24.905143 2.633143 11.154286 66.230857 215.405714 67.108572 217.124571 0.877714 0.841143 45.933714 0.841143 45.933714-0.877714z m232.338286 0c0-0.841143-0.877714-3.437714-1.755429-6.875429-2.669714-8.557714-2.669714-8.557714 8.813714-2.56 15.030857 7.716571 50.358857 10.313143 122.806858 10.313143h22.966857v-10.313143c0-12.032 0.877714-12.873143 11.483428-14.592l7.972572-0.841143-4.425143-15.469714-4.388572-15.433143h-15.945142c-40.594286-0.877714-46.811429 3.437714-47.689143 26.587429v11.154286l-2.669715-7.68-2.633142-8.594286h-8.850286c-4.388571 0-8.813714 0-8.813714-0.877714 0 0-43.300571-139.849143-49.481143-159.597715-0.877714-1.718857 0-2.56 5.302857-2.56 7.936 0 7.936 0 5.302857-6.875428-2.669714-7.716571-2.669714-7.716571 6.180571-7.716572 6.217143 0 9.728 0.841143 14.153143 3.437715 6.180571 3.401143 6.180571 2.56 34.450286 41.179428l11.483429 16.310857h-23.881143c-29.147429 0-26.477714-1.718857-21.211429 15.433143l4.425143 13.714286h58.331429c5.302857 18.029714 7.058286 23.186286 7.058285 24.027428 0 0.877714-12.361143 0.877714-28.269714 0.877715h-28.269714l4.388571 15.433143 4.461714 15.433142h79.506286c43.264 0 79.506286 0 79.506286-0.841142 0-0.877714-1.792-7.716571-4.425143-15.433143l-4.388571-14.628572-26.550858-0.841143-26.477714-0.841142c-4.425143-12.873143-6.217143-18.870857-7.094857-20.589715l-0.877714-3.437714h25.6c30.061714 0 28.306286 1.718857 22.125714-15.469714l-4.425143-13.714286H1323.52l-4.425143-5.12-4.388571-5.156571h22.930285l3.547429-20.626286c3.510857-23.149714 3.510857-23.149714 14.994286-23.149714 8.850286 0 8.850286 1.718857 2.669714-18.870858l-5.302857-17.188571h-16.786286c-29.147429 0-34.450286 4.315429-39.753143 33.499429l-2.633143 18.870857-10.605714-13.750857c-29.147429-38.619429-30.939429-39.460571-68.022857-39.460572-23.881143 0-23.881143 0-20.333714 6.875429 0.877714 3.437714 0.877714 3.437714-6.180572 3.437714s-7.058286 0-8.850285-5.156571l-0.877715-5.156572H1130.057143l0.877714 2.56c2.633143 8.594286 7.058286 7.753143-46.811428 7.753143-46.811429 0-49.481143 0-48.64 2.56l4.461714 15.433143c5.302857 15.469714 4.388571 15.469714 9.691428 15.469714 4.425143 0 4.425143 0 6.217143 5.997714 41.508571 134.729143 54.747429 177.627429 56.502857 183.625143l3.547429 11.154286h24.722286c15.908571 0 27.428571-0.841143 27.428571-1.718857z m-313.6-73.801143l-9.728-30.025143h-53.028572c-5.266286-17.188571-7.021714-22.308571-7.936-24.027428-0.877714-2.56 0.914286-2.56 26.514286-2.56 14.994286 0 27.392-0.877714 27.392-0.877715 0-0.841143-0.877714-2.56-1.755429-5.12a143.104 143.104 0 0 1-4.425142-15.469714l-3.547429-11.154286h-54.747429l-6.217142-20.589714c-8.813714-29.184-7.936-30.025143 25.636571-25.746286 14.116571 1.718857 13.238857 3.437714 7.058286-17.188571l-5.302857-17.115429h-37.083429c-58.331429 0-59.209143 1.682286-43.300571 50.614857 4.388571 15.433143 8.850286 28.306286 8.850285 28.306286s-6.217143 0.877714-15.030857 0.877714c-7.936 0-14.994286 0-14.994286 0.841143 6.144 21.467429 8.777143 28.306286 8.777143 30.025143 0.914286 1.718857 2.669714 2.56 15.945143 2.56h14.994286l7.094857 26.624h-14.153143c-10.605714 0-14.116571 0-14.116571 1.718857s7.936 26.587429 8.813714 29.184c1.792 1.718857 135.168 0.841143 134.290286-0.877714z m171.373714-61.805714c0-1.682286-1.755429-6.838857-2.633143-11.117715-5.302857-24.027429-12.397714-29.184-40.630857-30.902857-9.728-0.841143-18.578286-1.718857-18.578286-1.718857-1.755429-2.56-1.755429-23.149714 0-26.587428l2.669715-3.437715 17.664 0.877715c9.728 0.841143 17.664 0.841143 17.664 0.841142 0-1.718857-9.728-31.744-10.605715-32.621714-1.755429-1.718857-55.661714-0.841143-62.72 1.718857-10.605714 3.437714-10.605714 2.56-9.728 56.649143l0.877715 47.177143h45.056v-17.993143h8.850285c9.728 0 10.605714 0.841143 14.994286 12.873143l2.669714 6.838857h17.664c15.908571-0.841143 17.664-0.841143 16.822857-2.56zM1108.845714 557.348571l-9.691428-41.179428h13.238857c68.022857-1.718857 96.292571 74.642286 30.061714 79.798857-10.605714 0.841143-20.333714 1.718857-21.211428 1.718857-2.633143 0-2.633143-2.56-12.361143-40.338286z m-351.561143-58.331428c-16.822857-6.875429-32.694857-68.644571-19.456-78.116572 9.728-7.68 23.881143 5.156571 30.939429 26.624 11.483429 39.497143 7.936 58.331429-11.483429 51.492572z m526.518858-4.315429c-17.664-8.557714-30.939429-69.485714-17.664-76.361143 17.664-9.435429 40.594286 23.186286 40.594285 58.368 0 16.274286-9.691429 24.027429-22.930285 17.993143z m-356.937143-204.214857l-4.388572-15.433143c-2.669714-7.716571-4.388571-14.628571-5.302857-15.469714 0-0.841143 4.388571 0.877714 10.605714 4.315429 17.664 8.557714 22.966857 10.276571 48.566858 11.154285l22.089142 0.841143c3.547429 10.313143 4.425143 14.628571 4.425143 15.469714 0.877714 0.841143-75.081143 0.841143-75.958857-0.877714z m-14.994286-49.737143l-3.547429-13.750857 75.995429 0.841143 4.388571 13.750857c-60.050286 0-76.836571 0-76.836571-0.877714z m240.274286 30.866286c-3.510857-11.154286-6.180571-19.748571-5.266286-19.748571l10.605714 3.437714c5.266286 1.718857 14.994286 4.278857 20.297143 5.12 5.302857 0.877714 9.728 1.755429 10.605714 1.755428 0 0 8.813714 26.587429 8.813715 27.428572 0 0-8.813714 0.877714-19.419429 0.877714h-19.419428l-6.217143-18.870857z m-14.116572-43.776c0-0.841143-3.547429-9.435429-6.217143-19.748571-3.510857-10.276571-6.144-19.748571-6.144-19.748572 0-0.841143 4.388571 0.877714 10.605715 3.474286 6.180571 2.56 14.994286 5.12 20.297143 5.997714 11.483429 1.718857 12.361143 2.56 13.275428 6.875429 0.877714 1.718857 2.633143 8.557714 4.388572 13.714285l3.547428 10.313143h-19.419428c-10.605714 0-20.333714 0-20.333715-0.877714z m-30.939428-98.669714l38.875428-0.841143c7.972571 25.709714 10.605714 34.304 10.605715 35.181714l-38.875429 1.682286-10.605714-36.022857z"  horiz-adv-x="1682" />

    
    <glyph glyph-name="zhifubao" unicode="&#59086;" d="M230.4 319.488c-12.288-9.728-25.088-24.064-28.672-41.984-5.12-24.576-1.024-55.296 22.528-79.872 28.672-29.184 72.704-37.376 91.648-38.912 51.2-3.584 105.984 22.016 147.456 50.688 16.384 11.264 44.032 34.304 70.144 69.632-59.392 30.72-133.632 64.512-212.48 61.44-40.448-1.536-69.632-9.728-90.624-20.992z m752.64-135.68C1009.152 245.248 1024 312.832 1024 384 1024 666.112 794.112 896 512 896S0 666.112 0 384s229.888-512 512-512c170.496 0 321.536 83.968 414.72 211.968-88.064 43.52-232.96 115.712-322.56 159.232-42.496-48.64-105.472-97.28-176.64-118.272-44.544-13.312-84.992-18.432-126.976-9.728-41.984 8.704-72.704 28.16-90.624 47.616-9.216 10.24-19.456 22.528-27.136 37.888 0.512-1.024 1.024-2.048 1.024-3.072 0 0-4.608 7.68-7.68 19.456-1.536 6.144-3.072 11.776-3.584 17.92-0.512 4.096-0.512 8.704 0 12.8-0.512 7.68 0 15.872 1.536 24.064 4.096 20.48 12.8 44.032 35.328 65.536 49.152 48.128 114.688 50.688 148.992 50.176 50.176-0.512 138.24-22.528 211.968-48.64 20.48 43.52 33.792 90.112 41.984 121.344h-307.2v33.28h157.696v66.56H272.384V593.92h190.464v66.56c0 9.216 2.048 16.384 16.384 16.384h74.752v-82.944h207.36v-33.28h-207.36v-66.56h165.888s-16.896-92.672-68.608-184.32c115.2-40.96 278.016-104.448 331.776-125.952z"  horiz-adv-x="1024" />

    
    <glyph glyph-name="dizhi" unicode="&#58968;" d="M512-128c-273.0496 258.7648-409.6 463.5648-409.6 614.4a409.6 409.6 0 1 0 819.2 0c0-150.8352-136.5504-355.6352-409.6-614.4z m0 460.8a153.6 153.6 0 1 1 0 307.2 153.6 153.6 0 0 1 0-307.2z"  horiz-adv-x="1024" />

    
    <glyph glyph-name="zhanghu" unicode="&#58888;" d="M512 348.617532a273.691234 273.691234 0 1 1-273.865532 273.691234A274.083404 274.083404 0 0 1 512 348.617532z m185.365787-26.776511a42.746553 42.746553 0 0 1-45.535319-12.44051L512 149.307915l-139.786894 160.092596a42.681191 42.681191 0 0 1-45.578893 12.44051C128.217872 256.065362 0 96.256 0-85.340596A42.659404 42.659404 0 0 1 42.659404-128h938.681192A42.659404 42.659404 0 0 1 1024-85.340596c0 181.596596-128.217872 341.405957-326.634213 407.181617z"  horiz-adv-x="1024" />

    
    <glyph glyph-name="zu" unicode="&#58884;" d="M852.471937 826.186007V872.732508A23.03712 23.03712 0 0 1 829.768855 896H194.232297a23.03712 23.03712 0 0 1-22.703082-23.267492v-46.546501zM897.878101 709.825512v46.546501a23.03712 23.03712 0 0 1-22.7146 23.267492H148.837651a23.03712 23.03712 0 0 1-22.703082-23.267492v-46.546501zM943.261228 640a23.03712 23.03712 0 0 1-22.703082 23.267492H103.443006a23.03712 23.03712 0 0 1-22.703082-23.267492v-302.546502h272.379392a45.820832 45.820832 0 0 0 45.394646-46.546501v-18.118696c0-60.737368 43.125489-114.966749 102.146591-121.013993a114.747897 114.747897 0 0 1 124.838156 115.899753v23.267491a45.820832 45.820832 0 0 0 45.394645 46.546502h272.379393zM988.655874 290.90699700000005H693.584918a23.03712 23.03712 0 0 1-22.703082-23.267492v-23.267492a160.211654 160.211654 0 0 0-317.774038 0v23.267492a23.03712 23.03712 0 0 1-22.691564 23.267492H35.345278A23.03712 23.03712 0 0 1 12.642196 267.639505v-372.360495A23.03712 23.03712 0 0 1 35.345278-128h953.310596a23.03712 23.03712 0 0 1 22.703082 23.27901V267.639505a23.03712 23.03712 0 0 1-22.703082 23.267492z"  horiz-adv-x="1024" />

    
    <glyph glyph-name="tubiaolianxi-" unicode="&#58957;" d="M798.106 829.44H247.04A109.107 109.107 0 0 1 138.24 720.794v-673.587A109.107 109.107 0 0 1 247.04-61.440000000000055h420.608a239.923 239.923 0 0 1 239.206 239.258V720.794A109.056 109.056 0 0 1 798.106 829.44Zm-465.92-231.629A51.6608 51.6608 0 1 0 280.627 546.304 51.7632 51.7632 0 0 0 332.288 597.914Zm380.621-390.963H332.288a51.6608 51.6608 0 0 0 0 103.322h380.621a51.6608 51.6608 0 1 0 0-103.322Zm0 287.693H520.192a51.6608 51.6608 0 1 0 0 103.27h192.717a51.6608 51.6608 0 1 0 0-103.27Z"  horiz-adv-x="1024" />

    
    <glyph glyph-name="jifen" unicode="&#58936;" d="M1021.605712 509.846668c-7.585253 20.705095-24.745786 34.899882-61.916835 52.956203-37.168292 18.053564-165.238346 46.462432-191.701287 53.5488-35.845283 9.600086-43.593156 16.80773-53.581876 29.751171-7.348214 9.522911-16.945544 25.795925-32.149125 51.765494-20.983478 35.83977-52.468343 89.749642-88.142737 136.779865C565.638834 872.191346 535.620305 895.994487 512.001833 896h-0.005513-0.005512-0.002756c-23.618472-0.008269-53.634245-23.814167-82.114776-61.371093-35.674394-47.041249-67.156502-100.967658-88.13998-136.815696-15.203582-25.975082-24.800911-42.253609-32.149126-51.779276-9.985964-12.946197-17.736593-20.153841-53.579119-29.75944-26.462942-7.089125-154.527483-35.506261-191.695775-53.565338C27.14374 544.652837 9.983207 530.452537 2.397954 509.74193c-7.585253-20.710608 4.718733-52.677819 10.716375-64.871555 5.997642-12.193735 21.060654-37.711277 34.530542-55.943998 13.469888-18.232722 54.882835-66.776137 70.844391-84.51273 10.617149-11.799589 29.310168-31.090718 44.794889-49.858156 57.22842 87.878135 210.53212 269.530064 505.882915 282.068333-139.538891-7.940812-309.553851-90.824587-491.748766-419.653029-11.140841-59.918539-25.071026-140.718574-22.017079-176.200029 2.759026-32.036118 4.908916-37.306105 18.455979-47.611796 13.547064-10.305691 50.277109-34.285234 132.163114-11.904327 81.888762 22.380907 178.881879 83.575598 205.976006 83.575598 27.096884 0 124.09827-60.924577 205.989788-83.299971 81.888762-22.375394 118.618807 1.59588 132.16587 11.898814 13.547064 10.302935 15.696954 15.570165 18.45598 47.600772 3.996591 46.415575-21.099242 170.472501-30.958417 223.718112-7.858124 42.446548-7.858124 43.300991 3.572125 63.068954 14.079024 24.348883 48.333939 59.022751 64.298251 76.753832 15.961556 17.731081 57.377258 66.260714 70.847146 84.49068 13.469888 18.227209 28.5329 43.739238 34.530542 55.930217 5.99213 12.190979 18.293359 44.149922 10.708107 64.855017z"  horiz-adv-x="1024" />

    
    <glyph glyph-name="hangcheng" unicode="&#58905;" d="M811.1 331.2l-437 27.1V718.2l437-23.2zM846.8 711c-0.1 13.4-7.2 25.9-18.7 32.7-11.7 6.5-26 6.5-37.7 0-36.2-20.3-77.2-30.4-118.7-29.2-45.2-1.2-89.9 10.6-128.6 33.9-49.7 29.9-106.8 45.4-164.9 44.7-43.4 1-86.6-7.2-126.6-24.3-6.7 17.3-24.8 27.4-43.1 23.9-18.3-3.4-31.5-19.4-31.5-38v-742c0-21.3 17.3-38.6 38.6-38.6s38.6 17.3 38.6 38.6v314c37.6 21.7 80.5 32.6 124 31.3 45.1 1.6 89.7-9.8 128.6-32.7 50-29.2 107-44 164.9-42.7 53.8-1.4 106.9 11.5 154.1 37.4 12.8 6.6 20.8 19.8 20.8 34.2l0.2 356.8zM543 392.3c-50 29.2-107 44-164.9 42.7-42.4 1.3-84.6-6.1-124-21.9V685c37.6 21.8 80.5 32.8 124 31.6 45.2 1.2 89.9-10.6 128.6-33.9 50-29.2 107-44 164.9-42.7 33-0.5 66 4 97.6 13.4v-276.3c-30.8-13.3-64.1-19.7-97.6-18.7-45.2-1.2-89.8 10.6-128.6 33.9z m0 0"  horiz-adv-x="1024" />

    
    <glyph glyph-name="quanyi" unicode="&#59088;" d="M154.668666 175.68044L58.731859 19.335183c-4.812198-9.726784 0-22.013248 11.979302-22.013248l129.51981-7.371879c4.812198 0 7.167104-2.457293 9.624397-4.914585l79.145307-107.506562c7.167104-7.371879 19.146407-7.371879 23.958605 0l91.12461 153.990351c4.812198 7.371879 2.354906 14.64137-4.812199 19.555956L173.91746 180.595026c-7.269491 2.457293-14.436595 0-19.248794-4.914586z m714.662668 2.457293l95.936807-156.345257c4.812198-9.726784 0-22.013248-11.979302-22.013248l-129.51981-7.371879c-4.812198 0-7.167104-2.457293-9.624397-4.914586l-79.145307-107.506561c-7.167104-7.371879-19.146407-7.371879-23.958605 0l-91.12461 153.990351c-4.812198 7.371879-2.354906 14.64137 4.812199 19.555955l225.456618 129.51981c7.167104 4.914586 14.334208 2.457293 19.146407-4.914585z m-19.248794 532.72061L545.583002 886.861942C523.979303 899.046019 495.208499 899.046019 473.604799 886.861942L171.460167 713.315636c-21.6037-12.184077-35.937908-36.654618-35.937907-61.12516v-349.447519c0-24.470541 14.436595-48.838695 35.937907-61.125159l304.499538-175.901213c21.6037-12.184077 50.374503-12.184077 71.978203 0l302.144632 171.089014c21.6037 12.184077 35.937908 36.654618 35.937907 61.12516V647.378278c0.102387 26.825447-14.334208 51.295988-35.937907 63.480065zM706.228521 561.782577L528.791501 300.388051c-4.812198-7.371879-14.436595-12.184077-23.958605-12.184076-9.624397 0-19.146407 4.914586-23.958605 12.184076L310.604374 561.782577c-9.624397 12.184077-4.812198 31.740032 7.167105 39.111911 11.979303 7.371879 31.228096 4.914586 38.3952-7.371878L502.47799 368.680315l153.478415 227.299588c9.624397 12.184077 26.415898 17.098663 38.395201 7.371878 19.044019-12.184077 21.501312-29.28274 11.876915-41.569204z m0 0"  horiz-adv-x="1024" />

    
    <glyph glyph-name="jiage" unicode="&#58943;" d="M496.941176 670.117647l-180.705882-240.941176h361.411765l-180.705883 240.941176z m-180.705882-361.411765l180.705882-240.941176 180.705883 240.941176h-361.411765z"  horiz-adv-x="1024" />

    
    <glyph glyph-name="shangcheng" unicode="&#58889;" d="M672.426667 315.733333c-6.826667 6.826667-20.48 6.826667-27.306667 0-37.546667-30.72-85.333333-47.786667-133.12-47.786666-51.2 0-98.986667 17.066667-133.12 47.786666-6.826667 6.826667-17.066667 6.826667-23.893333 0-54.613333-44.373333-126.293333-61.44-201.386667-37.546666-3.413333 0-6.826667 3.413333-6.826667 3.413333v-225.28c0-51.2 40.96-85.333333 95.573334-85.333333h549.546666c54.613333 0 98.986667 30.72 98.986667 85.333333V281.6c-85.333333-30.72-163.84-13.653333-218.453333 34.133333z m-303.786667-269.653333c0-6.826667-17.066667-13.653333-34.133333-13.653333-20.48 0-34.133333 6.826667-34.133334 13.653333v177.493333c0 10.24 17.066667 13.653333 34.133334 13.653334 10.24 0 30.72-10.24 30.72-23.893334 6.826667-78.506667 3.413333-167.253333 3.413333-167.253333z m597.333333 460.8l-3.413333 6.826667-122.88 242.346666c-13.653333 27.306667-40.96 44.373333-71.68 44.373334H249.173333c-30.72 0-58.026667-17.066667-71.68-44.373334l-119.466666-242.346666s0-3.413333-3.413334-3.413334c-3.413333-13.653333-3.413333-23.893333-3.413333-37.546666 0-71.68 47.786667-136.533333 119.466667-157.013334 71.68-20.48 139.946667 6.826667 177.493333 58.026667 6.826667 10.24 23.893333 10.24 30.72 0 30.72-37.546667 78.506667-64.853333 133.12-64.853333s102.4 23.893333 133.12 64.853333c6.826667 10.24 23.893333 10.24 30.72 0 37.546667-47.786667 98.986667-71.68 163.84-61.44 75.093333 13.653333 136.533333 92.16 133.12 167.253333 0 3.413333-3.413333 13.653333-6.826667 27.306667z"  horiz-adv-x="1024" />

    
    <glyph glyph-name="shangpinhuiyuanjia" unicode="&#59029;" d="M871.131429 667.977143c43.812571-0.036571 79.396571-34.194286 79.396571-76.288v-613.12c-0.036571-42.093714-35.510857-76.251429-79.433143-76.324572H152.576C108.763429-97.755429 73.142857-63.488 73.142857-21.357714V591.725714c0.073143 42.130286 35.620571 76.251429 79.433143 76.251429H871.131429z m-247.04-314.916572h73.581714V420.571429h-168.777143v-67.510858h22.381714a11079.497143 11079.497143 0 0 0-56.173714-134.473142c-18.358857 43.154286-37.266286 88.466286-56.137143 134.473142h22.381714V420.571429H292.571429v-67.510858h73.581714a11890.322286 11890.322286 0 0 1 128.950857-303.835428s59.757714 134.4 128.987429 303.835428z m-112.274286 429.787429c66.011429 0 119.661714-51.565714 119.661714-114.834286h79.762286C711.241143 773.485714 621.787429 859.428571 511.853714 859.428571c-109.970286 0-199.424-85.906286-199.424-191.451428h79.762286c0 63.305143 53.686857 114.870857 119.661714 114.870857"  horiz-adv-x="1024" />

    
    <glyph glyph-name="shangpinguanli" unicode="&#58946;" d="M488.464663 683.756266c0-49.503266 26.393633-95.114384 69.20727-120.048462 42.813636-24.812448 95.600903-24.690818 138.414538 0 42.813636 24.812448 69.207269 70.545195 69.207269 120.048462 0 76.505048-62.03112 138.414539-138.414538 138.414538-76.505048 0-138.414539-61.90949-138.414539-138.414538z m0 0M257.489963 683.756266c0-49.503266 26.393633-95.114384 69.207269-120.048462 42.813636-24.690818 95.600903-24.690818 138.414539 0 42.935265 24.812448 69.328899 70.545195 69.328899 120.048462 0 76.505048-62.03112 138.414539-138.414539 138.414538-76.505048 0.12163-138.536168-61.90949-138.536168-138.414538z m0 0M788.403373-54.900582H234.38033c-64.585343 0-115.426535 53.152156-115.426535 115.426535V452.903195H903.829909V60.404324c0.12163-64.585343-50.597933-115.304906-115.426536-115.304906z m0 0M880.841905 429.793562H142.185058c-62.396009 0-115.426535 50.719563-115.426536 115.426535 0 62.396009 50.719563 115.426535 115.426536 115.426536h738.778477c64.585343 0 115.426535-50.719563 115.426535-115.426536-0.12163-64.585343-50.962822-115.426535-115.548165-115.426535z m0 0M511.452667 395.129113c-64.585343 0-120.048462 43.908303-140.847132 101.560755-4.621927 13.86578-18.487706 25.420596-32.353486 25.420596-23.109633 0-39.286376-23.109633-32.353486-46.097636 27.73156-87.694976 110.804609-150.090985 205.432474-150.090985 94.627866 0 177.822544 62.396009 205.432474 150.090985 6.93289 23.109633-9.243853 46.097636-32.353486 46.097636-16.176743 0-27.73156-9.243853-32.353486-25.420596-20.55541-57.652453-75.8969-101.560755-140.603872-101.560755z m0 0"  horiz-adv-x="1024" />

    
    <glyph glyph-name="shuaxin" unicode="&#59230;" d="M0 2.429991v314.858157h344.93607L191.986681 176.497915c56.060111-110.072364 214.385127-189.042885 354.407413-176.435759 162.804705 14.590988 312.810299 126.967192 352.615537 318.057934H1023.928965c-11.519201-153.205371-126.903196-343.016203-328.105238-411.939421-241.327258-82.746259-440.481442-12.351143-603.478133 179.699533L0 2.429991zM1023.161018 769.928746V451.230856h-316.778023l134.966636 124.087391C778.186013 699.789612 623.636735 779.52808 478.430809 768.392853c-129.271032-9.919312-303.658934-93.625505-355.111364-318.505904H0.831942C4.863663 582.229768 109.304417 765.769035 290.411853 847.747348c113.656115 51.388435 231.535937 62.26768 352.167568 30.077913 119.35172-31.805793 214.577114-99.833074 292.267724-206.001709l88.313873 98.16919z"  horiz-adv-x="1024" />

    
    <glyph glyph-name="xiangxia" unicode="&#58886;" d="M839.97683371 664.33140624q30.05911996 30.05911996 72.4639499 30.05911996t72.46394989-30.05911996q31.13265995-30.05911996 31.13265996-71.9271799t-31.13265996-71.92717989l-401.50395943-399.35687944q-12.88247998-15.02955998-32.20619994-20.93402997t-40.79451995-4.83093-42.40482994 9.12509-35.96358995 23.08110996l-395.06271944 392.91563945q-31.13265995 30.05911996-31.13265996 71.92717989t31.13265996 71.9271799q15.02955998 15.02955998 33.81650995 22.54433997t38.64743994 7.51477999 39.18420995-7.51477999 34.35327995-22.54433997l328.50323953-324.20907954z"  horiz-adv-x="1026" />

    
    <glyph glyph-name="youhuiquan2" unicode="&#58887;" d="M900.34176 311.21407999999997c-48.5376 24.24832-63.0784 43.66336-63.0784 82.49344 0 36.41344 14.5408 55.82848 63.0784 82.5344 26.66496 16.9984 29.12256 31.58016 29.12256 55.82848V670.43328a80.85504 80.85504 0 0 1-80.11776 80.11776H160.03072a80.85504 80.85504 0 0 1-80.11776-80.11776v-138.36288c0-21.83168 2.4576-41.24672 29.12256-55.82848 19.41504-9.70752 63.11936-33.9968 63.11936-82.5344 0-53.37088-31.58016-70.36928-60.66176-80.11776h-2.41664c-26.70592-16.95744-29.12256-43.66336-29.12256-55.82848v-138.32192c0-43.66336 36.41344-80.11776 80.11776-80.11776h689.31584c43.70432 0 80.11776 36.4544 80.11776 80.11776v138.32192c-0.04096 26.70592-9.74848 36.4544-29.16352 53.4528z m-266.97728 48.49664c14.5408 0 26.70592-12.12416 26.70592-26.66496s-12.16512-26.70592-26.70592-26.70592h-101.94944v-101.90848c0-14.5408-12.12416-26.70592-26.70592-26.70592s-26.70592 12.16512-26.70592 26.70592v101.90848H376.09472c-14.58176 0-26.70592 12.16512-26.70592 26.70592s12.12416 26.66496 26.70592 26.66496h101.94944v63.11936H368.80384c-14.58176 0-26.70592 12.12416-26.70592 26.70592s12.12416 26.70592 26.70592 26.70592h80.11776L363.9296 561.1929600000001a26.4192 26.4192 0 0 0 0 36.41344 26.4192 26.4192 0 0 0 36.41344 0l104.36608-104.36608 104.40704 104.36608a26.4192 26.4192 0 0 0 36.41344 0 26.50112 26.50112 0 0 0 0-36.41344l-84.95104-84.95104h77.66016c14.5408 0 26.66496-12.12416 26.66496-26.70592s-12.12416-26.70592-26.66496-26.70592h-109.24032v-63.11936h104.36608z"  horiz-adv-x="1024" />

    
    <glyph glyph-name="dianhua1" unicode="&#58899;" d="M731.396 444.237c0-21.915 14.61-36.526 36.526-36.526s36.526 14.61 36.526 36.526c0 119.317-97.402 216.72-216.72 216.72-21.915 0-36.526-14.61-36.526-36.527s14.61-36.526 36.526-36.526c80.357 0 143.668-65.746 143.668-143.667z m146.103 0c0-21.915 14.61-36.526 36.526-36.526s36.526 14.61 36.526 36.526c0 197.24-160.714 360.387-360.388 360.387-21.915 0-36.526-14.61-36.526-36.526s14.61-36.526 36.526-36.526c155.844 0 287.336-129.057 287.336-287.335zM390.49 570.859c38.96 38.96 43.83 99.837 7.305 143.668L285.782 855.76C249.256 902.026 181.074 909.331 134.81 872.805c-2.436-4.87-7.306-4.87-7.306-7.305l-97.402-97.4c-92.532-92.533 38.961-345.777 280.031-586.847S799.578-188.876 892.11-98.78l97.402 97.402c43.83 43.83 43.83 112.012 0 150.973l-7.305 7.305-141.233 112.012c-43.831 36.526-104.708 31.656-143.668-7.305l-60.877-60.876c-65.746 38.96-121.752 82.792-172.888 133.928-48.702 48.7-90.097 104.707-131.493 170.453l58.441 65.746z m-51.136 94.967c9.74-14.61 9.74-36.526-2.435-46.266l-80.357-82.792c-12.175-12.175-14.61-29.22-7.305-43.83 41.396-77.921 94.967-148.538 158.278-211.85 63.312-63.311 133.928-116.882 211.85-158.278 14.61-7.305 31.656-4.87 43.83 7.306l82.793 82.79c14.61 14.61 31.655 14.61 46.266 2.436l141.233-114.447s2.435 0 2.435-2.435c14.61-12.175 14.61-34.09 2.435-48.701l-2.435-2.435-97.402-97.402c-46.266-46.266-270.291 73.05-482.14 280.03C146.983 439.368 30.1 665.827 78.801 714.528l99.837 99.837c14.61 9.74 38.961 9.74 51.137-7.305l109.577-141.233z"  horiz-adv-x="1024" />

    
    <glyph glyph-name="kefu2" unicode="&#58890;" d="M1102.801167 710.655266c0 60.237039-32.435328 115.840459-83.40513 148.275787-37.068947 27.80171-78.771512 32.435328-120.474077 32.435329H199.245589C83.40513 891.366382 0 803.327633 4.633618 678.219938V200.957248c0-88.038749 69.504275-185.344734 157.543024-194.611971 78.771512-4.633618 157.543024-13.900855 231.680918-9.267237 88.038749 4.633618 152.909406-13.900855 208.512825-88.038748 32.435328-41.702565 78.771512-46.336183 125.107696-23.168092 18.534473 9.267237 37.068947 27.80171 50.969802 46.336183 37.068947 46.336183 74.137894 74.137894 134.374932 69.504276 13.900855 0 27.80171 4.633618 41.702565 4.633618 92.672367 23.168092 143.642169 83.40513 148.275787 176.077497 9.267237 180.711116 4.633618 352.154995 0 528.232492zM310.452429 390.9356c-32.435328 0-55.60342 27.80171-55.60342 60.237038 0 32.435328 23.168092 60.237039 55.60342 60.237039s55.60342-27.80171 55.603421-60.237039c0-32.435328-23.168092-60.237039-55.603421-60.237038z m245.581773 0c-32.435328 0-55.60342 27.80171-55.60342 60.237038 0 32.435328 23.168092 60.237039 55.60342 60.237039s55.60342-27.80171 55.60342-60.237039c0-32.435328-23.168092-60.237039-55.60342-60.237038z m245.581772 0c-32.435328 0-55.60342 27.80171-55.60342 60.237038 0 32.435328 23.168092 60.237039 55.60342 60.237039s55.60342-27.80171 55.603421-60.237039c0-32.435328-23.168092-60.237039-55.603421-60.237038z"  horiz-adv-x="1113" />

    
    <glyph glyph-name="kefuicon_huaban1fuben5" unicode="&#58944;" d="M682.666667 302.648889V741.831111a79.644444 79.644444 0 0 1-79.644445 79.644445H79.644444A79.644444 79.644444 0 0 1 0 741.831111v-439.182222a80.213333 80.213333 0 0 1 79.644444-80.213333h65.422223v-71.68a39.253333 39.253333 0 0 1 21.617777-35.271112 40.96 40.96 0 0 1 18.204445-4.551111 43.235556 43.235556 0 0 1 23.324444 7.395556l143.36 104.106667h252.017778A80.213333 80.213333 0 0 1 682.666667 302.648889z m0 0M943.786667 646.826667h-214.471111v-408.462223a53.475556 53.475556 0 0 0-53.475556-53.475555h-227.555556v-52.906667a80.213333 80.213333 0 0 1 80.213334-80.213333h120.035555l142.791111-101.262222a37.546667 37.546667 0 0 1 22.755556-7.395556 42.097778 42.097778 0 0 1 20.48 5.12A40.96 40.96 0 0 1 853.333333-14.222222v62.577778h91.591111A80.213333 80.213333 0 0 1 1024 126.293333V566.613333a80.213333 80.213333 0 0 1-79.644444 80.213334z m0 0"  horiz-adv-x="1024" />

    
    <glyph glyph-name="dianhua2" unicode="&#58969;" d="M712.704 422.912c3.584 69.12-50.176 127.488-119.808 131.072-18.944 1.024-30.72 13.824-30.208 32.768 1.024 18.944 14.336 30.72 33.28 29.696 104.448-5.12 184.832-93.184 179.712-196.608-1.024-18.944-14.336-30.72-33.28-29.696-18.944 0.512-30.72 13.824-29.696 32.768z m126.464-6.144c7.168 137.728-100.864 255.488-240.128 262.144-18.944 1.024-30.72 13.824-30.208 32.768 1.024 18.944 14.336 30.72 33.28 29.696 174.08-8.192 308.736-155.648 300.032-327.68-1.024-18.944-14.336-30.72-33.28-29.696s-30.72 13.824-29.696 32.768zM417.792 546.304L364.544 492.544c31.744-57.856 67.072-109.568 109.056-155.648 41.984-46.08 90.624-85.504 145.92-122.88l56.32 50.688c36.864 32.768 90.624 33.28 126.976 0.512l118.272-102.912 6.144-6.656c36.352-36.352 32.768-95.744-7.168-131.072l-90.112-80.384c-86.528-74.24-298.496 48.64-499.2 268.288-201.216 219.136-306.688 443.392-220.16 520.704l90.112 80.384c0 3.072 3.072 3.072 6.656 6.144 43.008 29.184 102.4 19.968 132.096-22.016l91.648-126.464c29.696-38.912 23.552-92.16-13.312-124.928z"  horiz-adv-x="1024" />

    
    <glyph glyph-name="goumai" unicode="&#58897;" d="M836.608 580.567c0 39.608-32.932 71.721-73.605 71.721h-59.76c-1.066 112.394-93.226 203.203-206.849 203.203s-205.783-90.809-206.848-203.203h-53.862c-40.632 0-73.564-32.113-73.564-71.721l-49.07-513.966c0-39.567 32.972-71.68 73.605-71.68h625.418c40.632 0 73.605 32.113 73.605 71.68l-49.07 513.966z m-429.22-454.164l49.03 143.4h-73.565L591.34 473.007l-61.318-155.402h85.853L407.388 126.403z m-81.305 525.885c1.024 92.406 76.84 166.994 170.311 166.994s169.247-74.588 170.312-166.994H326.083z"  horiz-adv-x="1024" />

    
    <glyph glyph-name="zhongzhi" unicode="&#58891;" d="M569.40556-110.293233l258.293023 341.42549c50.10987 66.365179 15.359347 132.026389-13.375432 160.633173l-67.133147 66.685166 243.381657 242.549691a114.683126 114.683126 0 0 1-1.66393 163.385057A104.69955 104.69955 0 0 1 907.311199 894.720054c-28.222801-2.047913-55.549639-15.231353-76.796736-36.862433L588.284758 616.331886 517.439769 686.664897c-34.81452 31.742651-119.802908 73.660869-192.631813 4.671801-25.790904-24.510958-215.606837-178.36042-312.306727-256.373104a30.910686 30.910686 0 0 1-2.3679-45.950047l508.842375-507.434434a31.102678 31.102678 0 0 1 50.365859 8.063657z m305.267026 924.632704a58.8135 58.8135 0 0 0 37.118423 18.559211 42.750183 42.750183 0 0 0 33.598572-12.799456c20.351135-20.543127 21.567083-54.653677 1.023956-75.516791l-243.189664-242.421697-70.972984 70.397008 242.421697 241.781725zM450.626608 37.284495l128.122555 114.299143a30.910686 30.910686 0 1 1-41.40624 46.078041l-130.682446-116.475049-83.004472 82.748483 128.250549 114.10715a30.910686 30.910686 0 0 1 2.495894 43.646145 31.29467 31.29467 0 0 1-43.902134 2.559891l-130.810441-116.475049-78.58866 78.396668 127.99456 114.427137a30.910686 30.910686 0 0 1 2.3679 43.646145 31.166675 31.166675 0 0 1-43.838137 2.431896l-130.554452-116.667041-78.716654 78.524662c71.548959 57.725547 261.108903 211.191024 289.267706 237.941888 47.99796 45.438069 101.947667-0.255989 106.875458-4.607804l296.307407-294.195497c6.399728-6.399728 36.798436-40.254289 7.359687-79.356627L537.598912-49.431819l-87.036301 86.780312z"  horiz-adv-x="1024" />

    
    <glyph glyph-name="weixin" unicode="&#59080;" d="M850.641252 580.952389h39.375659C850.641252 762.10159 661.59575 896 441.07089 896 196.878295 888.146038 0 722.725931 0 510.076203c0-126.023278 63.001054-220.54603 181.149201-299.360857l-47.250791-133.834901 157.523806 78.793657c55.041244-7.875132 102.397883-23.625395 157.523805-23.625395h39.375659c-7.875132 31.500527-15.750264 63.001054-15.750263 94.522751 0 196.878295 165.398937 354.42327 378.069835 354.42327zM614.344959 699.100535c31.500527 0 55.041244-23.625395 55.041243-55.041243s-23.625395-55.041244-55.041243-55.041244-70.876186 23.625395-70.876186 55.041244 39.375659 55.041244 70.876186 55.041243zM299.297348 588.827521c-31.500527 0-63.001054 23.625395-63.001055 55.041243s31.500527 55.041244 70.876186 55.041244c31.500527 0 55.041244-23.625395 55.041244-55.041244-7.875132-31.500527-31.500527-55.041244-63.001054-55.041243z m0 0M1260.190445 234.40425c0 181.149201-181.149201 322.922743-378.048666 322.922743-212.670898 0-378.048666-141.837051-378.048665-322.922743s165.377768-322.922743 378.048665-322.922742c47.250791 0 86.647619 7.875132 133.89841 23.625395l126.002109-63.106903-39.375659 102.397883c94.501582 70.876186 157.523806 157.523806 157.523806 259.921689z m-504.071944 55.041244c-23.625395 0-47.250791 23.625395-47.250791 47.250791s23.625395 47.250791 47.250791 47.250791c31.500527 0 55.041244-23.625395 55.041243-47.250791 0-31.500527-15.750264-47.250791-55.041243-47.250791z m244.150255 0c-23.625395 0-47.250791 23.625395-47.250791 47.250791s23.625395 47.250791 47.250791 47.250791c31.500527 0 55.041244-23.625395 55.041244-47.250791 7.875132-31.500527-15.750264-47.250791-55.041244-47.250791z m0 0"  horiz-adv-x="1260" />

    
    <glyph glyph-name="weibo" unicode="&#58892;" d="M1126.022737 801.414737c-114.580211 109.406316-286.504421 93.776842-286.504421 93.776842a35.570526 35.570526 0 0 1-36.432842-36.486737v-20.857263c0-20.803368 15.629474-36.432842 36.432842-36.432842 0 0 161.468632 15.629474 234.442105-83.375158 67.691789-98.950737 41.660632-229.160421 41.660632-229.160421-5.227789-20.803368 10.401684-36.432842 31.258947-36.432842h15.629474c20.803368 0 41.660632 15.629474 41.660631 36.432842 0 0 36.432842 197.955368-78.147368 312.535579zM1006.214737 686.834526c-62.517895 57.290105-145.839158 36.432842-145.839158 36.432842-15.629474 0-26.031158-15.629474-26.031158-31.258947v-10.401684c0-15.629474 10.401684-26.031158 26.031158-26.031158 0 0 67.691789 10.401684 104.178526-31.258947 31.258947-41.660632 5.227789-104.178526 5.22779-104.178527-5.227789-15.629474 5.173895-26.031158 15.629473-26.031158h31.258948c15.629474 0 26.031158 10.401684 31.258947 26.031158-5.227789 0 20.803368 109.406316-41.714526 166.696421zM693.679158 259.718737c-20.803368 93.776842-124.981895 156.294737-239.562105 135.383579-114.580211-20.803368-192.727579-119.754105-171.924211-213.530948 20.857263-93.776842 125.035789-156.294737 239.616-135.437473 109.406316 20.857263 187.553684 114.580211 171.924211 213.584842zM443.715368 139.856842c-36.486737-15.629474-72.973474-10.401684-83.375157 20.803369-10.401684 26.085053 5.227789 62.517895 41.660631 78.147368 36.486737 15.629474 72.919579 10.401684 83.375158-20.803368 10.401684-26.085053-5.227789-62.517895-41.660632-78.147369z m78.147369 83.321263a35.570526 35.570526 0 0 0-36.486737 36.486737 35.570526 35.570526 0 0 0 36.432842 36.432842 35.570526 35.570526 0 0 0 36.486737-36.432842 35.570526 35.570526 0 0 0-36.486737-36.486737zM876.005053 431.589053c0 10.401684 98.950737 104.178526 0 166.696421s-286.450526-31.258947-281.276632-20.857263c78.147368 140.665263-36.432842 182.325895-93.776842 182.325894-140.611368 0-499.981474-307.307789-499.981474-505.263158 0-197.901474 239.562105-354.196211 541.642106-354.19621 296.96 0 536.522105 156.294737 536.522105 354.19621 0 166.696421-203.129263 166.696421-203.129263 177.098106z m-322.937264-421.888c-192.727579-26.031158-359.370105 52.062316-374.999578 177.098105-15.629474 125.035789 125.035789 250.017684 312.481684 276.048842 192.727579 26.031158 359.424-52.116211 375.053473-177.098105 20.803368-125.035789-119.808-250.017684-312.535579-276.048842z"  horiz-adv-x="1239" />

    
    <glyph glyph-name="douyin" unicode="&#58895;" d="M333.991225 520.634714v37.265468a299.575092 299.575092 0 0 1-39.698609 2.870679C132.083247 560.770861 0 430.992694 0 271.643333c0-97.720473 49.751321-184.257037 125.669574-236.633589a285.125653 285.125653 0 0 0-79.077067 196.796248c0 157.086968 128.294805 285.189683 287.398718 288.828722M340.92781 99.77610300000003c72.417946 0 131.453619 56.559846 134.185566 127.056892l0.234777 629.318993h117.057537A214.297785 214.297785 0 0 0 588.627919 896H428.755646l-0.288135-629.318993c-2.678589-70.46503-61.70359-127.11025-134.110865-127.11025a135.402136 135.402136 0 0 0-62.375905 15.164442 134.932583 134.932583 0 0 1 108.968412-55.012454m470.15105 542.846459v34.97106a224.009004 224.009004 0 0 0-121.16613 35.397926 223.390047 223.390047 0 0 1 121.16613-70.368986M689.934073 712.93819a215.236892 215.236892 0 0 0-54.67096 143.213798h-42.857423a218.769215 218.769215 0 0 1 97.581742-143.213798M294.356646 403.630535c-74.146756 0-134.46303-59.217091-134.463029-132.029889 0-50.658413 29.28306-94.711062 72.044437-116.812089a129.564733 129.564733 0 0 0-25.45193 77.017435c0 72.759439 60.273587 132.029889 134.463029 132.029889a134.292283 134.292283 0 0 0 39.698609-6.125538V518.0094839999999a299.254942 299.254942 0 0 1-39.698609 2.81732c-2.347767 0-4.642176-0.096045-6.936585-0.19209v-123.076359a134.665791 134.665791 0 0 1-39.698608 6.07218M811.057517 642.622563v-122.126581a385.076505 385.076505 0 0 0-222.429598 70.315628v-319.082904c0-159.413392-132.061904-289.031484-294.335303-289.031483a296.29889 296.29889 0 0 0-168.6764 52.387223 295.97874 295.97874 0 0 1 215.268907-92.299265c162.305414 0 294.324631 129.682122 294.324632 289.07417v319.082903a385.012475 385.012475 0 0 1 222.440268-70.219582V637.734938a226.644906 226.644906 0 0 0-46.592506 4.887625M588.627919 271.654004v319.082904a385.033818 385.033818 0 0 1 222.429598-70.219582V642.569204a223.379376 223.379376 0 0 0-121.123444 70.326299 218.705185 218.705185 0 0 0-97.528383 143.256485H475.348153l-0.234777-629.318993c-2.731947-70.433015-61.76762-127.056891-134.185566-127.056892a134.97527 134.97527 0 0 0-108.968412 55.012454 131.795112 131.795112 0 0 0-72.065781 116.865447c0 72.759439 60.273587 132.019217 134.463029 132.019218a135.732958 135.732958 0 0 0 39.655922-6.114867V520.634714C174.908655 517.006347 46.61385 388.903632 46.61385 231.80599199999995a285.104309 285.104309 0 0 1 79.055724-196.817591 296.320233 296.320233 0 0 1 168.687072-52.408567c162.209369 0 294.292616 129.639435 294.292617 289.020812"  horiz-adv-x="1051" />

    
    <glyph glyph-name="weibo1" unicode="&#58896;" d="M465.865 385.993c-101.027-4.665-182.726-58.791-182.726-126.31 0-67.44 81.698-118.103 182.726-113.381 101.136 4.592 182.982 67.885 182.982 135.311-0.001 67.367-81.845 109.028-182.982 104.381z m68.862-169.816c-30.945-39.948-92.173-59.456-151.65-27.255-28.289 15.362-27.238 45.513-27.238 45.513s-11.769 95.201 89.885 107.077c101.765 11.822 119.948-85.389 89.004-125.335zM418.394 266.83799999999997c-18.995-1.977-32.569-18.535-32.569-34.339 0-15.878 15.27-26.814 34.266-24.586 18.883 2.144 34.267 16.746 34.267 32.573 0 15.857-14.164 28.435-35.963 26.353zM466.546 279.913c-6.51-4.723-7.839-13.722-4.298-19.343 3.394-5.778 11.325-6.441 17.74-1.628 6.273 4.965 8.707 13.596 5.313 19.35-3.394 5.622-11.212 7.229-18.756 1.62zM512.278 890.332c-280.665 0-508.19-227.523-508.19-508.19s227.523-508.19 508.19-508.19 508.19 227.523 508.19 508.19S792.945 890.332 512.278 890.332z m226.895-653.463c-41.676-88.486-179.035-131.568-280.835-123.581-96.748 7.616-221.14 39.744-233.995 156.814 0 0-6.786 53.04 44.63 121.646 0 0 73.916 103.258 160.041 132.729 86.198 29.305 96.231-20.306 96.231-49.628-4.572-24.898-13.131-39.523 19.217-29.47 0 0 84.723 39.28 119.581 4.425 28.144-28.141 4.647-66.851 4.647-66.851s-11.654-12.927 12.358-17.577c24.081-4.796 99.767-39.872 58.123-128.507z m-83.539 244.473c-9.223 0-16.638 7.451-16.638 16.618 0 9.312 7.413 16.762 16.638 16.762 0 0 103.845 19.22 91.434-92.394 0-0.663-0.073-1.181-0.221-1.771-1.181-7.891-8.134-13.959-16.321-13.959-9.237 0-16.765 7.395-16.765 16.617 0-0.001 16.451 74.596-58.128 58.131z m175.568-89.264h-0.149c-2.731-18.882-12.115-20.397-23.275-20.397-13.351 0-24.159 8.412-24.159 21.764 0 11.582 4.793 23.345 4.793 23.345 1.422 4.869 12.727 35.189-7.449 80.446-36.922 62.038-111.314 62.96-120.096 59.417-8.851-3.465-21.942-5.235-21.942-5.235-13.43 0-24.217 10.955-24.217 24.234 0 11.174 7.471 20.619 17.649 23.493 0 0 0.218 0.369 0.591 0.444 0.737 0.148 1.477 0.906 2.288 0.979 10.345 1.972 47.285 9.237 83.173 0.83 64.253-15.013 152.444-77.125 112.791-209.319z"  horiz-adv-x="1024" />

    
    <glyph glyph-name="weixin1" unicode="&#58997;" d="M512 896C228.6848 896 0 667.3152 0 384s228.6848-512 512-512 512 228.6848 512 512S795.3152 896 512 896zM764.5952 151.8848l17.0496-64.8448L716.8 124.5952c-23.8848-6.8352-47.7952-13.6704-71.68-13.6704-112.64 0-201.3952 85.3504-201.3952 187.7504 0 102.4 88.7552 187.7248 201.3952 187.7248 105.8048 0 201.3952-85.3248 201.3952-187.7248 3.4048-58.0352-34.1504-109.2352-81.92-146.7904zM413.0048 240.64c-30.72 0-54.6048 6.8352-81.92 13.6448L245.76 206.5152l23.8848 78.4896c-61.44 44.3904-95.5648 102.4-95.5648 174.08 0 122.88 109.2352 218.4704 238.9248 218.4704 116.0704 0 218.4704-75.1104 238.9504-180.9152-6.8352 3.4048-17.0752 3.4048-23.9104 3.4048-116.0448 0-201.3696-92.16-201.3696-204.8 0-20.48 3.4048-37.5296 6.8096-54.6048h-20.48zM580.2752 384c-10.24 0-23.9104-10.24-23.9104-27.3152 0-10.24 10.24-23.8848 23.9104-23.8848 17.0496 0 30.72 10.24 30.72 23.8848 0 17.0752-13.6704 27.3152-30.72 27.3152zM501.76 506.88c17.0752 0 30.72 13.6448 30.72 30.72 0 20.48-10.24 30.72-30.72 30.72-17.0752 0-34.1248-10.24-34.1248-30.72 0-17.0752 17.0496-30.72 34.1248-30.72z m-167.2448 64.8448c-17.0752 0-37.5552-10.24-37.5552-30.72 0-20.48 17.0752-30.72 37.5552-30.72 17.0496 0 30.72 13.6704 30.72 30.72 0 17.0752-13.6704 30.72-30.72 30.72zM713.3952 384c-13.6704 0-23.9104-10.24-23.9104-27.3152 0-10.24 10.24-23.8848 23.9104-23.8848 17.0496 0 30.72 10.24 30.72 23.8848-3.4304 17.0752-13.6704 27.3152-30.72 27.3152z"  horiz-adv-x="1024" />

    
    <glyph glyph-name="gengduo" unicode="&#58898;" d="M66.488889 684.218182h891.022222c28.198788 0 50.980202 22.238384 50.980202 49.648485 0 27.397172-22.768485 49.648485-50.980202 49.648485H66.488889C38.341818 783.515152 15.508687 761.276768 15.508687 733.866667s22.833131-49.648485 50.980202-49.648485z m891.009293-248.242424H66.488889C38.277172 435.975758 15.508687 413.737374 15.508687 386.327273s22.768485-49.648485 50.980202-49.648485h891.022222c28.198788 0 50.980202 22.238384 50.980202 49.648485-0.012929 27.410101-22.923636 49.648485-50.993131 49.648485z m0-351.63798H66.488889c-28.134141 0-50.980202-22.238384-50.980202-49.648485s22.833131-49.648485 50.980202-49.648485h891.022222c28.198788 0 50.980202 22.238384 50.980202 49.648485-0.012929 27.397172-22.781414 49.648485-50.993131 49.648485z m0 0"  horiz-adv-x="1024" />

    
    <glyph glyph-name="gouwu1" unicode="&#58901;" d="M682.667 554.667v-136.534H614.4V554.667H409.6v-136.534h-68.267V554.667h-74.171l-26.283-443.734H783.12l-26.283 443.734h-74.171z m-337.92 68.266a170.735 170.735 0 0 0 334.506 0h109.773a34.133 34.133 0 0 0 34.065-32.085l30.31-512a34.133 34.133 0 0 0-34.064-36.181H204.663a34.133 34.133 0 0 0-34.065 36.181l30.31 512a34.133 34.133 0 0 0 34.066 32.085h109.773z m70.656 0h193.194a102.434 102.434 0 0 1-193.194 0z"  horiz-adv-x="1024" />

    
    <glyph glyph-name="zhankai1" unicode="&#58903;" d="M77.01393172 546.52511685l388.90633274-425.28085643a61.20194282 61.20194282 0 0 1 45.97295917-20.80042352c17.59903834 0 34.34767891 7.57349731 45.97295915 20.80233025l388.90633269 425.2789497c18.98713149 20.05298875 24.85411317 49.27921404 15.04021825 75.09240806s-33.49346775 43.83933794-61.01317741 46.29519508L123.30722009 667.91271999c-27.62839275-2.34908074-51.41474198-20.26844826-61.22673018-46.18841867a71.95966482 71.95966482 0 0 1 14.93344181-75.20109115z"  horiz-adv-x="1024" />

    
    <glyph glyph-name="liwu" unicode="&#59103;" d="M979.691644 738.461846H862.523992C844.277669 828.345511 764.808618 896 669.538154 896c-64.41761 0-121.608487-30.929852-157.538154-78.750078C476.072333 865.070148 418.879456 896 354.461846 896c-95.270465 0-174.737516-67.654489-192.983838-157.538154H44.307356C19.836264 738.461846 0 718.622582 0 694.15449v-270.770951h59.075808v-507.075183c0-24.471092 19.839264-44.307356 44.307356-44.307356H920.615837c24.471092 0 44.307356 19.836264 44.307355 44.307356V423.383539h59.075808V694.15449c0.001 24.468092-19.835264 44.307356-44.307356 44.307356zM669.538154 807.384288c45.881297 0 84.87585-28.635937 100.658264-68.922442h-201.312529c15.781414 40.286505 54.774967 68.922442 100.654265 68.922442z m-315.076308 0c45.881297 0 84.87585-28.635937 100.658265-68.922442H253.803582c15.782414 40.286505 54.776967 68.922442 100.658264 68.922442z m113.229798-846.768576H147.691519V423.383539h320.000125v-462.767827z m408.616837 0H556.307356V423.383539H876.307481v-462.767827z m59.075807 551.383538h-846.768576V649.846135h846.768576v-137.846885z"  horiz-adv-x="1024" />

    
    <glyph glyph-name="shangcheng1" unicode="&#58906;" d="M803.15 796.78h-580.3c-68.68 0-124.35-55.67-124.35-124.35v-580.3c0-68.68 55.67-124.35 124.35-124.35h580.3c68.68 0 124.35 55.67 124.35 124.35v580.3c0 68.68-55.67 124.35-124.35 124.35z m41.45-704.65c0-22.89-18.56-41.45-41.45-41.45h-580.3c-22.89 0-41.45 18.56-41.45 41.45v580.3c0 22.89 18.56 41.45 41.45 41.45h580.3c22.89 0 41.45-18.56 41.45-41.45v-580.3zM513 382.28c-114.44 0-207.25 111.33-207.25 248.7h82.9c0-106.36 69.18-165.8 124.35-165.8s124.35 59.44 124.35 165.8h82.9c0-137.36-92.81-248.7-207.25-248.7z"  horiz-adv-x="1024" />

    
    <glyph glyph-name="zhongwen" unicode="&#59018;" d="M454.826667 691.712V799.402667c0 30.72 15.36 46.08 53.76 46.08s61.610667-15.36 61.610666-46.08v-107.690667h292.352c38.4 7.68 76.970667-23.04 76.970667-53.76v-353.792c0-69.290667-23.04-92.330667-84.650667-92.330667H570.197333v-215.381333c0-38.4-23.04-53.76-61.610666-53.76-38.4 0-61.610667 15.36-61.610667 46.08V184.149333H170.154667c-61.610667 0-84.650667 30.72-84.650667 100.010667V607.232c-7.68 61.610667 23.04 84.650667 84.650667 84.650667h284.672zM231.765333 299.52h223.061334V576.341333H231.765333c-23.04 0-30.72-7.68-30.72-30.72V322.56c-0.170667-15.36 7.68-23.04 30.72-23.04z m592.213334 23.04V553.301333c0 15.36-7.68 30.72-23.04 30.72H570.197333V307.2h230.741334c15.36-7.68 23.04 0 23.04 15.36z m0 0"  horiz-adv-x="1024" />

    
    <glyph glyph-name="dianhua3" unicode="&#59205;" d="M390.160524 570.785227c38.970715 38.906723 43.834055 99.826461 7.295011 143.596525L285.470723 855.610598A107.889368 107.889368 0 0 1 134.515196 872.696281c-2.43167-4.86334-7.295011-4.86334-7.29501-7.359002L29.825395 768.006479c-92.53145-92.53145 38.970715-345.745108 280.026021-586.800415 240.991316-241.055307 489.341633-370.06181 581.873084-279.96203l97.394791 97.330799c43.834055 43.834055 43.834055 111.984812 0 151.019518l-7.295011 7.295011-141.228846 111.984812c-43.834055 36.475053-104.689801 31.611713-143.660516-7.295011l-60.855746-60.919737A861.579148 861.579148 0 0 0 463.238613 334.657252C414.541218 383.290656 373.138833 439.283062 331.736448 505.002149l58.424076 65.783078z m-94.067242 104.689802c9.790672-14.654013 9.790672-36.539044-2.367679-46.265726L230.886126 554.787397a37.242949 37.242949 0 0 1-7.295011-43.834055C264.9935 433.011913 333.144257 336.513 396.431674 273.225584c63.351408-63.351408 151.339475-133.741861 229.280904-175.080255a37.242949 37.242949 0 0 1 43.770063 7.295011l72.246202 65.015182c14.590021 14.654013 31.675704 14.654013 46.265725 2.43167l112.432752-73.334054s2.43167 0 2.43167-2.43167c14.654013-12.158351 14.654013-34.107374 2.43167-48.697396l-2.43167-2.43167-77.109542-69.110627c-45.305855-35.195227-241.631229 65.271148-453.506493 272.219081C162.863352 458.480459 66.492422 665.492383 115.253809 714.125787l57.272232 61.943599c14.654013 9.726681 39.034706 9.726681 51.193057-7.295011l72.502167-93.427329z"  horiz-adv-x="1024" />

    
    <glyph glyph-name="duihua1" unicode="&#58967;" d="M910.208 832C973.056 832 1024 781.856 1024 720v-448c0-61.856-50.944-112-113.792-112h-373.76l-211.04-207.744c-10.88-10.624-25.632-16.48-40.96-16.256-31.424 0-56.896 25.088-56.896 56V160H113.792C50.944 160 0 210.144 0 272v448C0 781.856 50.944 832 113.792 832h796.416z m0-112H113.792v-448h170.656c31.424 0 56.896-25.056 56.896-56v-89.024l130.24 128.224A57.344 57.344 0 0 0 512 272h398.208v448z m-610.56-188.544c6.304-6.24 12.64-12.48 12.64-18.688 6.336-12.48 6.336-31.168 0-49.856-6.336-6.24-6.336-12.48-12.672-18.688-12.672-12.48-25.312-18.72-44.32-18.72-6.336 0-18.976 0-25.312 6.24-6.336 6.24-12.672 6.24-19.008 12.48-6.304 6.208-12.64 12.48-12.64 18.688 0 6.24-6.336 12.48-6.336 24.928 0 24.928 12.672 49.856 37.984 56.064 25.312 12.48 50.656 6.24 69.632-12.48z m253.184 0c6.336-6.24 12.672-12.48 12.672-18.688 6.336-12.48 6.336-31.168 0-49.856-6.336-6.24-6.336-12.48-12.672-18.688-12.64-12.48-25.312-18.72-44.32-18.72-6.304 0-18.976 0-25.28 6.24-6.368 6.24-12.704 6.24-19.008 12.48-6.336 6.208-12.672 12.48-12.672 18.688 0 6.24-6.336 12.48-6.336 24.928 0 24.928 12.672 49.856 37.984 56.064 25.312 12.48 50.656 6.24 69.632-12.48z m253.216 0c6.336-6.24 12.672-12.48 12.672-18.688 6.336-12.48 6.336-31.168 0-49.856-6.336-6.24-6.336-12.48-12.672-18.688-12.64-12.48-25.312-18.72-44.288-18.72-6.336 0-19.008 0-25.344 6.24-6.336 6.24-12.64 6.24-18.976 12.48-6.336 6.208-12.672 12.48-12.672 18.688 0 6.24-6.336 12.48-6.336 24.928 0 24.928 12.672 49.856 37.984 56.064 25.344 12.48 50.656 6.24 69.632-12.48z"  horiz-adv-x="1024" />

    
    <glyph glyph-name="shipin" unicode="&#58970;" d="M508 860.8C246.4 860.8 35.2 649.6 35.2 388c0-261.6 212-472.8 472.8-472.8s472.8 212 472.8 472.8C980.8 649.6 769.6 860.8 508 860.8zM508-14.4c-222.4 0-402.4 180-402.4 402.4 0 222.4 180 402.4 402.4 402.4s402.4-180 402.4-402.4C910.4 165.6 730.4-14.4 508-14.4zM688.8 420.8 444.8 561.6c-24.8 14.4-56.8-4-56.8-32.8l0-282.4c0-28.8 31.2-47.2 56.8-32.8l244 140.8C713.6 369.6 713.6 406.4 688.8 420.8z"  horiz-adv-x="1024" />

    
    <glyph glyph-name="fenxiang1" unicode="&#58942;" d="M977.512364 388.176021a44.282818 44.282818 0 0 1-44.557016-43.871523v-319.439524a64.162102 64.162102 0 0 0-64.436298-63.750807H152.179344a64.162102 64.162102 0 0 0-64.436299 63.750807v671.097198a64.162102 64.162102 0 0 0 64.436299 63.750806h233.752957a43.871523 43.871523 0 1 1 0 87.743045h-233.067464A152.110795 152.110795 0 0 1 0 695.276679v-671.097198a152.659189 152.659189 0 0 1 152.864837-152.179344h716.339705a152.659189 152.659189 0 0 1 152.864837 152.179344v319.439524a44.07717 44.07717 0 0 1-44.557015 44.557016zM255.620169 181.979864a43.18603 43.18603 0 0 1 35.028668-50.932096 38.867427 38.867427 0 0 1 8.225911-0.616943 44.008621 44.008621 0 0 1 43.18603 35.645612v2.125027A869.204542 869.204542 0 0 0 461.199382 448.362266a639.290344 639.290344 0 0 0 193.034699 191.595165 567.313627 567.313627 0 0 0 199.272682 75.404179l10.556585 1.91938L774.606571 625.013694a44.14572 44.14572 0 0 1 0.616944-62.311272 43.117481 43.117481 0 0 1 31.18991-12.750162 45.928 45.928 0 0 1 31.875404 13.709851c6.854925 6.854925 149.300275 152.042246 171.373135 176.034485 16.931666 18.851045 17.48006 34.274627 14.943737 43.528776-3.084716 13.024358-14.189696 23.101099-31.327009 28.379391l-250.89027 82.259105a46.476394 46.476394 0 0 1-14.943737 2.125027 42.226341 42.226341 0 0 1-19.947833-5.004096 40.718257 40.718257 0 0 1-21.524466-25.431773 44.557015 44.557015 0 0 1 1.919379-33.794782 43.18603 43.18603 0 0 1 26.117266-22.141409l66.081481-22.07286-10.693684-3.016167a638.399204 638.399204 0 0 1-161.639141-70.948478C524.196146 662.921431 449.820205 589.573729 386.754892 496.003997a928.019802 928.019802 0 0 1-131.134723-314.024133z"  horiz-adv-x="1025" />

    
    <glyph glyph-name="shouzhi" unicode="&#58919;" d="M411.411692 895.606154c51.475692 0 93.577846-44.032 93.577846-98.304V662.449231c12.209231 7.483077 25.954462 11.815385 40.487385 11.815384 28.711385 0 54.272-15.753846 69.986462-40.920615 14.966154 12.603077 33.043692 20.086154 51.908923 20.086154 34.185846 0 64.866462-23.630769 78.217846-57.816616 10.633846 5.12 22.055385 7.876923 33.831384 7.876924 47.576615 0 86.094769-44.071385 86.09477-98.304 0.630154-100.864 0.630154-199.837538 0-296.841847-0.945231-145.565538-142.690462-313.186462-332.681846-313.186461-183.768615 0-303.261538 130.875077-358.518154 392.585846l-3.859693 15.990154c-12.878769 56.753231-10.870154 92.711385 30.601847 120.438154 16.108308 11.027692 34.973538 16.541538 54.626461 16.541538 15.202462 0 35.918769-1.851077 62.148923-5.513846V797.302154C317.833846 851.574154 359.896615 895.606154 411.411692 895.606154z m0-54.193231c-19.613538 0-36.903385-16.777846-39.148307-39.187692l-0.236308-4.923077v-310.862769h0.275692v-178.924308H318.070154v72.900923l-7.758769 1.102769c-23.945846 3.347692-42.338462 4.962462-54.626462 4.962462-9.137231 0-17.289846-2.441846-24.497231-7.364923-16.896-11.303385-18.471385-22.331077-3.820307-80.187077 50.451692-239.182769 151.236923-349.538462 305.467077-349.538462 148.125538 0 277.661538 131.229538 278.44923 259.268923 0.669538 96.807385 0.669538 195.544615 0 296.52677 0 25.796923-15.950769 44.110769-31.901538 44.110769a22.055385 22.055385 0 0 1-6.774154-1.142154l-3.465846-1.378462-15.281231-7.364923v-135.68h-54.193231V564.302769l-4.568615 11.579077c-5.710769 14.690462-17.289846 23.315692-27.726769 23.315692a24.615385 24.615385 0 0 1-13.430154-4.647384l-3.544616-2.638769-19.219692-16.147693v-134.301538H576.984615v151.236923l-7.483077 11.933538c-6.419692 10.24-15.123692 15.399385-24.024615 15.399385a21.385846 21.385846 0 0 1-9.058461-2.087385l-3.15077-1.732923-28.711384-17.565538v-133.592616h-54.193231V643.977846h0.393846V797.302154c0 24.851692-18.353231 44.110769-39.384615 44.110769z"  horiz-adv-x="1024" />

    
    <glyph glyph-name="tuichu" unicode="&#59025;" d="M102.4 793.6h552.96V896H102.4C46.08 896 0 849.92 0 793.6v-819.2c0-56.32 46.08-102.4 102.4-102.4h552.96v102.4H102.4V793.6z m906.24-384s-5.12 5.12-10.24 5.12l-209.92 209.92a49.472 49.472 0 0 1-71.68 0c-20.48-20.48-20.48-51.2 0-71.68l133.12-133.12h-409.6c-25.6 0-51.2-25.6-51.2-51.2s25.6-51.2 51.2-51.2h404.48l-128-122.88c-20.48-20.48-20.48-51.2 0-71.68 20.48-20.48 51.2-20.48 71.68 0L998.4 332.8c5.12 0 5.12 5.12 10.24 5.12 10.24 10.24 15.36 25.6 15.36 35.84 0 10.24-5.12 25.6-15.36 35.84z"  horiz-adv-x="1024" />

    
    <glyph glyph-name="rili" unicode="&#59002;" d="M379.757714 723.382857h337.627429V807.789714H379.757714V723.382857z m506.368 0h84.626286c22.966857 0 41.984-19.602286 41.984-44.617143v-652.434285c0-24.868571-19.236571-44.617143-42.422857-44.617143H126.829714a43.446857 43.446857 0 0 0-42.422857 44.617143V678.765714c0 25.014857 19.090286 44.617143 42.496 44.617143h86.016V807.789714H126.902857C56.393143 807.789714 0 749.860571 0 678.765714v-652.434285c0-71.094857 56.466286-129.024 126.829714-129.024h843.483429c70.363429 0 126.829714 58.002286 126.829714 129.024V678.765714c0 71.021714-56.246857 129.024-126.390857 129.024h-84.626286V723.382857zM253.220571 854.089143c0 23.113143 18.724571 41.910857 42.130286 41.910857 23.405714 0 42.203429-18.797714 42.203429-41.910857v-177.225143a41.984 41.984 0 0 0-42.203429-41.910857 42.057143 42.057143 0 0 0-42.130286 41.910857V854.089143z m506.368 0c0 23.113143 18.724571 41.910857 42.203429 41.910857 23.259429 0 42.130286-18.724571 42.130286-41.910857v-177.005714a41.984 41.984 0 0 0-42.130286-41.910858 42.057143 42.057143 0 0 0-42.203429 41.910858V854.089143zM253.220571 462.482286c0 23.405714 19.017143 42.203429 42.422858 42.203428h505.856a42.203429 42.203429 0 1 0 0-84.333714H295.643429a42.203429 42.203429 0 0 0-42.422858 42.130286z m0-217.380572c0 23.332571 19.017143 42.203429 42.422858 42.203429h505.856a42.203429 42.203429 0 1 0 0-84.406857H295.643429a42.203429 42.203429 0 0 0-42.422858 42.203428z"  horiz-adv-x="1097" />

    
    <glyph glyph-name="huiyuanshangcheng-01" unicode="&#59348;" d="M957.42 473.94q-6.9-44.28-25.79-74.47t-43.44-47.39q-24.54-17.22-48-22.8-31.77-6.88-90-6.89h-55.9L666 141h-85.71l74.88 480.87h137.59q78.21 0 100.84-7.22 34.8-10.81 53.78-47.07t10.04-93.64z m-113.52 63.3q-14.83 3.28-61.19 3.28h-41.42l-21.24-136.45H767q50.68 0 69 7.54a72.43 72.43 0 0 1 30.47 23.62 81.48 81.48 0 0 1 15.52 37.39q4.08 26.25-6.87 43.3t-31.22 21.32zM425.92 141l74.88 480.87h85.74L511.66 141z m-284.73 0L64.28 621.87h93l52-355.9 159.4 355.9h91L232.72 141z"  horiz-adv-x="1024" />

    
    <glyph glyph-name="saishirili-01" unicode="&#59349;" d="M893.83 693.86h-179V790a8.3 8.3 0 0 1-8.3 8.31h-58.1a8.3 8.3 0 0 1-8.3-8.31v-96.13H382.84V790a8.3 8.3 0 0 1-8.3 8.31h-58.1a8.3 8.3 0 0 1-8.3-8.31v-96.13h-177.9A33.19 33.19 0 0 1 97 660.67V1.5a33.19 33.19 0 0 1 33.2-33.19h763.6A33.19 33.19 0 0 1 927 1.5V660.66a33.21 33.21 0 0 1-33.17 33.2zM171.74 43V383.3h680.6V43z m0 418.44v148h136.41v-54a8.29 8.29 0 0 1 8.3-8.3h58.1a8.29 8.29 0 0 1 8.3 8.3v54h257.3v-54a8.29 8.29 0 0 1 8.3-8.3h58.1a8.29 8.29 0 0 1 8.3 8.3v54h137.49v-148z"  horiz-adv-x="1024" />

    
    <glyph glyph-name="gouwuche-01" unicode="&#59350;" d="M709.27 560.94v-158.12h-79.06V560.94H393v-158.12h-79V560.94h-85.9l-30.46-513.88h628l-30.47 513.88zM317.93 640a197.73 197.73 0 0 0 387.39 0h127.13a39.54 39.54 0 0 0 39.45-37.16L907 9.9a39.53 39.53 0 0 0-39.45-41.9H155.7a39.53 39.53 0 0 0-39.45 41.9l35.1 592.94A39.52 39.52 0 0 0 190.8 640z m81.83 0h223.73a118.62 118.62 0 0 1-223.73 0z"  horiz-adv-x="1024" />

    
    <glyph glyph-name="saishizhoubian-01" unicode="&#59351;" d="M891.09 670.31h-95A159.65 159.65 0 0 1 512 734.17a159.65 159.65 0 0 1-284.11-63.86h-95A35.92 35.92 0 0 1 97 634.39v-219.47h47.88v-411A35.92 35.92 0 0 1 180.8-32h662.4a35.92 35.92 0 0 1 35.92 35.91v411H927V634.39a35.92 35.92 0 0 1-35.91 35.92z m-251.4 55.86a87.65 87.65 0 0 0 81.59-55.86H558.11a87.65 87.65 0 0 0 81.58 55.86z m-255.38 0a87.66 87.66 0 0 0 81.59-55.86H302.72a87.65 87.65 0 0 0 81.59 55.86z m91.78-686.34H216.71V414.92h259.38v-375.09z m331.2 0H547.91V414.92h259.38v-375.09z m47.88 446.92H168.83V598.48h686.34v-111.73z"  horiz-adv-x="1024" />

    
    <glyph glyph-name="denglu-01" unicode="&#59352;" d="M834.33-32.17H191.74c-39.4 0-71.4 30.27-71.4 67.47v94.89c0 107.31 96.1 194.64 214.18 194.64h357c118.07 0 214.18-87.33 214.18-194.64v-94.89c0-37.2-32-67.47-71.41-67.47z m-642.59 71.74l642.59-0.33v91c0 67.95-64.05 123.23-142.77 123.23h-357c-78.72 0-142.78-55.28-142.78-123.23z m321 312c-123.16 0.16-223 100-223.11 223.12 0.15 123.16 99.95 223 223.11 223.11 123.16-0.15 223-100 223.12-223.11-0.16-123.16-100-223-223.12-223.12z m0 374.83a151.71 151.71 0 1 1 151.72-151.68 151.91 151.91 0 0 1-151.71 151.71z"  horiz-adv-x="1024" />

    
    <glyph glyph-name="yingwen-01" unicode="&#59353;" d="M98 797.43h830v-830H98z m363.16-155.62H201.79v-518.75h259.37V187.9H266.63V350h194.53v64.85H266.63V577h194.53z m315.41-518.75h68.67V641.81h-64.85V260.4l-190.7 381.41H521v-518.75h64.84V504.43z"  horiz-adv-x="1024" />

    
    <glyph glyph-name="zhongwen-01" unicode="&#59354;" d="M98 797.43v-830h830v830z m676-498.9H547V85h-69V298.53H251.66V575.36H478V684.72h69V575.4h227zM318.73 510.14H478v-146.39H318.73zM547.01 510.14h159.91v-146.39H547.01z"  horiz-adv-x="1024" />

    
    <glyph glyph-name="xiangzuo-01" unicode="&#59355;" d="M736 820.71a37.94 37.94 0 0 0-0.22-52.68l-376-381.7 374.44-387a38 38 0 0 0-0.22-52.72 35.8 35.8 0 0 0-51.47 0.22L284.56 358.16c-0.62 0.63-0.77 1.45-1.35 2.08-0.14 0.16-0.32 0.19-0.47 0.34a37.89 37.89 0 0 0 0.21 52.68L684.52 820.89a35.77 35.77 0 0 0 51.47-0.18"  horiz-adv-x="1024" />

    
    <glyph glyph-name="xiangxia-01" unicode="&#59356;" d="M948.31 610.39a37.94 37.94 0 0 1-52.68-0.22l-381.7-376-387 374.43a38 38 0 0 1-52.72-0.21 35.8 35.8 0 0 1 0.22-51.47L485.76 159c0.63-0.62 1.45-0.77 2.08-1.35 0.16-0.14 0.19-0.32 0.34-0.47a37.89 37.89 0 0 1 52.68 0.21L948.5 558.92a35.78 35.78 0 0 1-0.19 51.47"  horiz-adv-x="1024" />

    
    <glyph glyph-name="xiangshang-01" unicode="&#59357;" d="M74.4 157.11a37.93 37.93 0 0 1 52.67 0.22l381.71 376 387-374.44a38 38 0 0 1 52.72 0.22 35.8 35.8 0 0 1-0.23 51.47L537 608.55c-0.64 0.62-1.46 0.76-2.09 1.34-0.15 0.14-0.19 0.33-0.33 0.47a37.87 37.87 0 0 1-52.69-0.21L74.21 208.58a35.77 35.77 0 0 1 0.19-51.47"  horiz-adv-x="1024" />

    
    <glyph glyph-name="xiangyou-01" unicode="&#59358;" d="M282.72 820.71a37.94 37.94 0 0 1 0.21-52.68l376-381.7-374.44-387a38 38 0 0 1 0.22-52.72 35.8 35.8 0 0 1 51.47 0.22l397.97 411.33c0.62 0.63 0.76 1.45 1.34 2.08 0.14 0.16 0.33 0.19 0.47 0.34a37.86 37.86 0 0 1-0.21 52.68L334.18 820.89a35.76 35.76 0 0 1-51.46-0.18"  horiz-adv-x="1024" />

    
    <glyph glyph-name="sousuo-01" unicode="&#59359;" d="M915.55 42.12l-149.4 148.66c49.8 61.94 83 144.52 83 231.24C849.15 628.49 679 797.79 471.5 797.79 268.15 797.79 98 628.49 98 422s170.15-375.75 377.65-375.75c87.15 0 170.15 28.9 232.4 82.59l149.4-148.66c16.6-16.52 41.5-16.52 58.1 0 16.6 20.65 16.6 45.42 0 61.94zM475.65 133c-161.85 0-290.5 132.13-290.5 289 0 161 132.8 289 290.5 289s290.5-132.06 290.5-289-132.8-289-290.5-289z"  horiz-adv-x="1024" />

    
    <glyph glyph-name="jiarugouwuche-01" unicode="&#59360;" d="M412.79 71.52a66.26 66.26 0 1 0 64-17.16 66.24 66.24 0 0 0-64 17.16z m265.08 0a66.27 66.27 0 1 0 64-17.15 66.26 66.26 0 0 0-64 17.14z m116.19 165.4H385.49c-17.75 0-26.66 15.58-35 30.77q-8.37 15.19-148 358.68H88c-6.08 0-23 9-23 34.2S81.94 697 87.94 697h140.24c17.75 0 28.62-13.61 35-30.77q6.42-17.14 149.35-351.32h356.26c43.81 103.34 72.55 166.47 86.35 197.19s29 65 34.34 77.55 22.65 15.61 30.89 15.61 25.54-8.47 31.79-15.61 7.87-15.14 6.25-25.3Q843.53 292.73 834.58 273.46c-8.93-19.27-23.24-36.54-40.52-36.54zM566.59 374.58a40.16 40.16 0 0 0-4.63 2.69l-0.85 0.59c-0.84 0.58-1.65 1.19-2.43 1.84l-0.58 0.51-133.63 139.47a35.56 35.56 0 0 0-4 50.09c12.7 15.1 35.53 18.23 52.18 7.23l3.78-2.91 49.48-52.82V697c0 7.74 21.38 17.53 58.17 17.53s51.42-8.63 54.85-17.53v-175.77L691.64 574a40 40 0 0 0 52.77-0.83A35.55 35.55 0 0 0 747 523l-3.4-3.31-133.5-139.48-0.78-0.66c-0.65-0.54-1.32-1-2-1.55l2.78 2.21a39.72 39.72 0 0 0-21.51-9.34l-4.51-0.26a43.76 43.76 0 0 0-8.84 1 45 45 0 0 0-8.65 2.97z"  horiz-adv-x="1024" />

    
    <glyph glyph-name="lijigoumai-01" unicode="&#59361;" d="M790.15 362.47c0-18-1.71-36.29-3.35-45.51H580.65v-82h202.8c2.19-11.5 6.7-39 6.7-53.76 0-18.1-4.51-39.65-6.7-52h-202.8v-186.27c-19-3.32-51.08-5-70.3-5s-58.45 1.7-77.41 5V129.25H228.71c-3 9.89-4.54 80.67-4.54 62.62 0-22.17 3 36.54 4.54 43H433V317H228.71c-3 9.9-4.54 27.43-4.54 45.52 0 7.35 0.4 14.7 1.11 22.19 0.73 7.06 1.88 36.67 3.43 43.56l159.47 0.05L181.44 827c21.63 3.21 63.37 4.82 85.19 4.9 10.45 0 21.33-0.45 32.57-1.2a284.38 284.38 0 0 0 30.37-3.7L512 467.76 694.73 827c9.69 1.65 19.65 2.85 29.77 3.66a397.47 397.47 0 0 0 62.3 0c9.78-0.7 46.15-2 55.83-3.7L639.32 428.27H786.8a213.58 213.58 0 0 0 3.31-39.48z"  horiz-adv-x="1024" />

    
    <glyph glyph-name="shoucangchangtai-01" unicode="&#59362;" d="M694.71 769.21c-71.45 0-137.7-36-181.71-95.11-43.53 59.15-110.25 95.11-181.71 95.11C202.58 769.21 98 654.7 98 514.16c0-83.76 37.38-142.91 67.67-190.23C253.21 186.22 473.73 15.4 483.18 8.3a47.9 47.9 0 0 1 59.63 0c9.47 7.1 229.5 178.4 317.52 315.63C890.62 371.25 928 430.4 928 514.16c0 140.54-104.57 255-233.28 255z m105.52-443.86C719.32 211.78 548 82.12 539.5 76a44.29 44.29 0 0 0-26.5-9.46 40.58 40.58 0 0 0-26.5 9.46C478 82.12 310 213.2 225.77 330.08c-27 42.59-70 95.59-70 170.35 0 125.88 70 214.36 185 214.36 63.88 0 133.44-61 172.24-114 39.28 53 108.36 114 172.25 114 115.46 0 190.23-88.48 190.23-214.36 0-74.76-47.8-133-75.25-175.08z"  horiz-adv-x="1024" />

    
    <glyph glyph-name="shoucangdianji-01" unicode="&#59363;" d="M694.71 769.21c-71.45 0-137.7-36-181.71-95.11-43.53 59.15-110.25 95.11-181.71 95.11C202.58 769.21 98 654.7 98 514.16c0-83.76 37.38-142.91 67.67-190.23C253.21 186.22 473.73 15.4 483.18 8.3a47.9 47.9 0 0 1 59.63 0c9.47 7.1 229.5 178.4 317.52 315.63C890.62 371.25 928 430.4 928 514.16c0 140.54-104.57 255-233.28 255z"  horiz-adv-x="1024" />

    


  </font>
</defs>
</svg>
